Банши / Banshee (2014) WEBRip [720p] [Трейлер] (сезон 3) [EN]

Ответить на тему
Статистика раздачи
Размер:  25 MB   |    Зарегистрирован:  2 года 11 месяцев   |    Скачан:  0 раз
Сидов:  14  [  0 KB/s  ]   Подробная статистика пиров
 
   
 
 
Автор Сообщение

Bot ®

Стаж: 4 года 2 месяца

Сообщений: 162152

Создавать темы 19-Ноя-2014 23:07

[Цитировать]

-Банши / Banshee (2014) WEBRip [720p] [Трейлер] (сезон 3) [EN]- Год выпуска: 2014
Производство: США, Your Face Goes Here Entertainment, Cinemax
Жанр: Боевик, Триллер, Криминал-Режиссер: Грег Яйтанс, Оле Кристиан Мадсен, Лони Перистер
Продюсер: Джонатан Троппер, Кристина Йоканович, Питер Макдисси
Актеры: Энтони Старр, Ивана Миличевич, Рас Блэквелл, Мэтт Сервитто, Триесте Келли Данн, Райанн Шэйн, Фрэнки Фэйзон, Деметриус Гросс, Мэттью Ройч, Хун Ли и др.
Описание фильма:
Вор и убийца выходит на свободу после 15 лет заключения и выдаёт себя за убитого шерифа в глухом американском городке со странным названием Банши.-Перевод: отсутствует
Язык: Английский
Субтитры: Отсутствуют-
Дата мировой премьеры: 11 января 2013 (1 сезон)
Дата российской премьеры: 25 мая 2013 (1 сезон)-Продолжительность: 00:01:32
Качество видео: WEBRip
Видео: AVC, 1280x720 (16:9), 25.000 fps, 2 048 Kbps (0.089 bit/pixel)
Аудио: AAC LC, 44.1 KHz, 2 ch, 128 Kbps, CBR
MediaInfo:
Формат : MPEG-4
Профиль формата : Base Media
Идентификатор кодека : isom
Размер файла : 24,6 Мбайт
Продолжительность : 1 м. 32 с.
Общий поток : 2241 Кбит/сек
Программа кодирования : Lavf54.29.104
Видео
Идентификатор : 1
Формат : AVC
Формат/Информация : Advanced Video Codec
Профиль формата : High@L3.1
Параметр CABAC формата : Да
Параметр ReFrames формата : 4 кадра
Идентификатор кодека : avc1
Идентификатор кодека/Информация : Advanced Video Coding
Продолжительность : 1 м. 32 с.
Битрейт : 2048 Кбит/сек
Ширина : 1280 пикселей
Высота : 720 пикселей
Соотношение сторон : 16:9
Режим частоты кадров : Постоянный
Частота кадров : 25,000 кадров/сек
Цветовое пространство : YUV
Субдискретизация насыщенности : 4:2:0
Битовая глубина : 8 бит
Тип развёртки : Прогрессивная
Бит/(Пиксели*Кадры) : 0.089
Размер потока : 23,1 Мбайт (94%)
Библиотека кодирования : x264 core 132
Настройки программы : cabac=1 / ref=3 / deblock=1:0:0 / analyse=0x3:0x113 / me=hex / subme=7 / psy=1 / psy_rd=1.00:0.00 / mixed_ref=1 / me_range=16 / chroma_me=1 / trellis=1 / 8x8dct=1 / cqm=0 / deadzone=21,11 / fast_pskip=1 / chroma_qp_offset=-2 / threads=128 / lookahead_threads=5 / sliced_threads=0 / nr=0 / decimate=1 / interlaced=0 / bluray_compat=0 / constrained_intra=0 / bframes=3 / b_pyramid=2 / b_adapt=1 / b_bias=0 / direct=1 / weightb=1 / open_gop=0 / weightp=2 / keyint=50 / keyint_min=5 / scenecut=40 / intra_refresh=0 / rc_lookahead=40 / rc=abr / mbtree=1 / bitrate=2048 / ratetol=1.0 / qcomp=0.60 / qpmin=0 / qpmax=69 / qpstep=4 / ip_ratio=1.40 / aq=1:1.00
Аудио
Идентификатор : 2
Формат : AAC
Формат/Информация : Advanced Audio Codec
Профиль формата : LC
Идентификатор кодека : 40
Продолжительность : 1 м. 32 с.
Вид битрейта : Постоянный
Битрейт : 128 Кбит/сек
Каналы : 2 канала
Расположение каналов : Front: L R
Частота : 44,1 КГц
Метод сжатия : С потерями
Задержка видео : 80 мс.
Размер потока : 1,41 Мбайт (6%)
Скриншоты:
-
[realmt.org].t655222.torrent 
Торрент: Зарегистрирован [ 2014-11-19 23:07 ] · D30F73F0C46E34A93910AE57E6E1D15F86558AE8

Скачать .torrent

Скачать

16 KB

Статус: проверено
Скачан: 0 раз
Размер: 25 MB
Оценка:  - (Голосов: 0)
Поблагодарили: 0  Спасибо
terms.php
Похожие темы
[Профиль] [ЛС]
Быстрый ответ

Имя:

      
Для отправки сообщений необходимо включить JavaScript
Показать сообщения:    
Ответить на тему

Текущее время: 20-Окт 22:57

Часовой пояс: UTC + 3



Вы можете начинать темы
Вы можете отвечать на сообщения
Вы не можете редактировать свои сообщения
Вы не можете удалять свои сообщения
Вы не можете голосовать в опросах
Вы не можете прикреплять файлы к сообщениям
Вы можете скачивать файлы