Сегодня идет свободное скачивание без начисления Download

Ограбление по-американски / American Heist (2014) DCPRip [2K] [Трейлер]

Ответить на тему
Статистика раздачи
Размер:  459 MB   |    Зарегистрирован:  2 года 2 месяца   |    Скачан:  0 раз
Сидов:  14  [  0 KB/s  ]   Личеров:  1  [  0 KB/s  ]   Подробная статистика пиров
 
   
 
 
Автор Сообщение

Bot ®

Стаж: 3 года 6 месяцев

Сообщений: 162156

Создавать темы 27-Ноя-2014 11:00

[Цитировать]

-Ограбление по-американски / American Heist (2014) DCPRip - Год выпуска: 2014
Производство: США, Россия / Glacier Films, NGN Productions
Жанр: боевик, триллер
Режиссер: Колин Треворроу
Актеры: Крис Пратт, Брайс Даллас Ховард, Тай Симпкинс, Ник Робинсон, Джейк Джонсон, Винсент Д'Онофрио
Описание фильма:
У Джеймса темное прошлое, но сейчас он из всех сил пытается изменить свою жизнь — встречается с красивой девушкой, устроился работать автомехаником, мечтает о собственном бизнесе. Тем временем, его старший брат Френки, отсидевший десять лет в тюрьме, выходит на свободу. Френки пытается наладить отношения, но Джеймс не может простить брата за то, что много лет назад он втянул его в криминал, из-за чего Джеймс отсидел шестнадцать месяцев.
Язык: Русский
Перевод: Профессиональный (полное дублирование)- -Дата мировой премьеры: 11 сентября 2014
Дата российской премьеры: 22 января 2015
Продолжительность: 00:02:31
Качество видео: DCPRip
Видеокодек: MPEG-4 AVC
Битрейт видео: ~25.0 Mbps
Размер кадра: 2544x1080
Аудиокодек: АС3 5.1
Битрейт аудио: 448 Kbps
MediaInfo
General
Unique ID                                : 234136518421813436006250040650492445432 (0xB0250D9DE164E2F3AE4D6C9A01DA82F8)
Complete name                            : E:\americanheist_trailer2_rus_1080p.mkv
Format                                   : Matroska
Format version                           : Version 4 / Version 2
File size                                : 459 MiB
Duration                                 : 2mn 31s
Overall bit rate                         : 25.4 Mbps
Movie name                               : Long Boy
Encoded date                             : UTC 2014-11-26 06:27:58
Writing application                      : mkvmerge v7.2.0 ('On Every Street') 64bit built on Sep 13 2014 15:52:10
Writing library                          : libebml v1.3.0 + libmatroska v1.4.1
Attachements                             : cover.jpg
DURATION                                 : 00:02:31.584000000
NUMBER_OF_FRAMES                         : 4737
NUMBER_OF_BYTES                          : 8488704
_STATISTICS_WRITING_APP                  : mkvmerge v7.2.0 ('On Every Street') 64bit built on Sep 13 2014 15:52:10
_STATISTICS_WRITING_DATE_UTC             : 2014-11-26 06:27:58
_STATISTICS_TAGS                         : BPS DURATION NUMBER_OF_FRAMES NUMBER_OF_BYTES
Video
ID                                       : 1
Format                                   : AVC
Format/Info                              : Advanced Video Codec
Format profile                           : [url=mailto:High@L5.0]High@L5.0[/url]
Format settings, CABAC                   : No
Format settings, ReFrames                : 1 frame
Codec ID                                 : V_MPEG4/ISO/AVC
Duration                                 : 2mn 31s
Bit rate                                 : 25.0 Mbps
Width                                    : 2 544 pixels
Height                                   : 1 080 pixels
Display aspect ratio                     : 2.35:1
Frame rate mode                          : Constant
Frame rate                               : 30.000 fps
Color space                              : YUV
Chroma subsampling                       : 4:2:0
Bit depth                                : 8 bits
Scan type                                : Progressive
Bits/(Pixel*Frame)                       : 0.303
Stream size                              : 442 MiB (96%)
Writing library                          : x264 core 116 r2019 9cc407d
Encoding settings                        : cabac=0 / ref=1 / deblock=1:0:0 / analyse=0x3:0x113 / me=hex / subme=7 / psy=1 / psy_rd=1.00:0.00 / mixed_ref=0 / me_range=16 / chroma_me=1 / trellis=1 / 8x8dct=1 / cqm=0 / deadzone=21,11 / fast_pskip=1 / chroma_qp_offset=-2 / threads=6 / sliced_threads=0 / nr=0 / decimate=1 / interlaced=0 / bluray_compat=0 / constrained_intra=0 / bframes=0 / weightp=2 / keyint=250 / keyint_min=25 / scenecut=40 / intra_refresh=0 / rc_lookahead=40 / rc=2pass / mbtree=1 / bitrate=25000 / ratetol=1.0 / qcomp=0.60 / qpmin=0 / qpmax=69 / qpstep=4 / cplxblur=20.0 / qblur=0.5 / ip_ratio=1.40 / aq=1:1.00
Language                                 : Russian
Default                                  : Yes
Forced                                   : No
Audio
ID                                       : 2
Format                                   : AC-3
Format/Info                              : Audio Coding 3
Mode extension                           : CM (complete main)
Format settings, Endianness              : Big
Codec ID                                 : A_AC3
Duration                                 : 2mn 31s
Bit rate mode                            : Constant
Bit rate                                 : 448 Kbps
Channel(s)                               : 6 channels
Channel positions                        : Front: L C R, Side: L R, LFE
Sampling rate                            : 48.0 KHz
Bit depth                                : 16 bits
Compression mode                         : Lossy
Stream size                              : 8.10 MiB (2%)
Language                                 : Russian
Default                                  : Yes
Forced                                   : No
Скриншоты: Время раздачи: 24/7 до 5 скачавших!-Пункт правил 5.1
Примечание: выразить уважение автору раздачи и благодарность за релиз можно и нужно кнопкой
От себя: Спасибо за спасибо!
-
[realmt.org].t660443.torrent 
Торрент: Зарегистрирован [ 2014-11-27 11:00 ] · D375BFEF93D60CAD65F3668D3DBD954876FD723E

Скачать .torrent

Скачать

19 KB

Статус: проверено
Скачан: 0 раз
Размер: 459 MB
Оценка:  - (Голосов: 0)
Поблагодарили: 0  Спасибо
terms.php
Похожие темы
[Профиль] [ЛС]
Быстрый ответ

Имя:

      
Для отправки сообщений необходимо включить JavaScript
Показать сообщения:    
Ответить на тему

Текущее время: 22-Фев 13:41

Часовой пояс: UTC + 3



Вы можете начинать темы
Вы можете отвечать на сообщения
Вы не можете редактировать свои сообщения
Вы не можете удалять свои сообщения
Вы не можете голосовать в опросах
Вы не можете прикреплять файлы к сообщениям
Вы можете скачивать файлы