Сегодня идет свободное скачивание без начисления Download

Вычислитель (2014) WEBRip [1080р] [Трейлер]

Ответить на тему
Статистика раздачи
Размер:  86 MB   |    Зарегистрирован:  3 года   |    Скачан:  0 раз
Сидов:  90  [  0 KB/s  ]   Личеров:  5  [  0 KB/s  ]   Подробная статистика пиров
 
   
 
 
Автор Сообщение

Bot ®

Стаж: 4 года 4 месяца

Сообщений: 162151

Создавать темы 27-Ноя-2014 23:22

[Цитировать]

-Вычислитель (2014) WEBRip [1080р] [Трейлер]- Год выпуска: 2014
Производство: Россия
Жанр: Фантастика, Боевик
Описание фильма:
Десять заключенных, приговоренных к пожизненному изгнанию с планеты XT-59, отправляются в опасный путь через Саргассово Болото. Группа сразу делится на две части: Эрвин и Кристи идут на поиск Счастливых Островов, Юст ведет остальных к Гнилой Мели. Однако долгое время их маршруты практически совпадают. В первый же вечер Эрвин понимает, что его должны убить — в прошлой жизни он занимал слишком высокий пост, и теперь он опасен для тех, кто пришел к власти. Выбрав в попутчицы Кристи, он сразу старается уйти подальше от остальных членов группы, чтобы обезопасить себя. На пути к Счастливым островам герои преодолевают массу препятствий. Цена этому — свобода и счастье.
Режиссер: Дмитрий Грачев
Продюсер: Дмитрий Медников, Алексей Куренков, Фёдор Бондарчук
Актеры: Евгений Миронов, Винни Джонс, Анна Чиповская, Иван Верховых, Владас Багдонас, Алексей Колубков, Никита Панфилов, Линда Нигматулина, Пётр Сковцов, Ирене Мускара
Перевод: не требуется
Субтитры: Отсутствуют

Дата российской премьеры: 18 декабря 2014, «Централ Партнершип»
Продолжительность: 00:01:45
Качество видео: WEBRip
Видео: AVC, 1920x800 (2.40:1), 24.000 fps, 6 712 Kbps (0.182 bit/pixel)
Аудио: AAC LC, 44.1 KHz, 2 ch, 128 Kbps, VB
MediaInfo:
Формат : MPEG-4
Профиль формата : Base Media
Идентификатор кодека : isom
Размер файла : 85,9 Мбайт
Продолжительность : 1 м. 45 с.
Режим общего битрейта : Переменный
Общий поток : 6844 Кбит/сек
Дата кодирования : UTC 2014-11-26 18:00:01
Дата пометки : UTC 2014-11-26 18:00:01
Программа кодирования : Lavf51.12.1
Видео
Идентификатор : 1
Формат : AVC
Формат/Информация : Advanced Video Codec
Профиль формата : High@L4.0
Параметр CABAC формата : Нет
Параметр ReFrames формата : 5 кадров
Параметр GOP формата : M=1, N=12
Идентификатор кодека : avc1
Идентификатор кодека/Информация : Advanced Video Coding
Продолжительность : 1 м. 45 с.
Битрейт : 6712 Кбит/сек
Ширина : 1920 пикселей
Высота : 800 пикселей
Соотношение сторон : 2,40:1
Режим частоты кадров : Постоянный
Частота кадров : 24,000 кадра/сек
Цветовое пространство : YUV
Субдискретизация насыщенности : 4:2:0
Битовая глубина : 8 бит
Тип развёртки : Прогрессивная
Бит/(Пиксели*Кадры) : 0.182
Размер потока : 84,2 Мбайт (98%)
Дата кодирования : UTC 2014-11-26 18:00:01
Дата пометки : UTC 2014-11-26 18:00:01
Аудио
Идентификатор : 2
Формат : AAC
Формат/Информация : Advanced Audio Codec
Профиль формата : LC
Идентификатор кодека : 40
Продолжительность : 1 м. 45 с.
Вид битрейта : Переменный
Битрейт : 128 Кбит/сек
Каналы : 2 канала
Расположение каналов : Front: L R
Частота : 44,1 КГц
Метод сжатия : С потерями
Размер потока : 1,60 Мбайт (2%)
Дата кодирования : UTC 2014-11-26 18:00:01
Дата пометки : UTC 2014-11-26 18:00:01
Скриншоты:
-Время раздачи: с 12:00 до 18:30 до 3-х скачавших
[realmt.org].t660822.torrent 
Торрент: Зарегистрирован [ 2014-11-27 23:22 ] · 7AB7D5B826DD16EE16CD398FC0ADF2411C872A1A

Скачать .torrent

Скачать

14 KB

Статус: проверено
Скачан: 0 раз
Размер: 86 MB
Оценка:  - (Голосов: 0)
Поблагодарили: 0  Спасибо
terms.php
Похожие темы
[Профиль] [ЛС]
Быстрый ответ

Имя:

      
Для отправки сообщений необходимо включить JavaScript
Показать сообщения:    
Ответить на тему

Текущее время: 17-Дек 18:48

Часовой пояс: UTC + 3



Вы можете начинать темы
Вы можете отвечать на сообщения
Вы не можете редактировать свои сообщения
Вы не можете удалять свои сообщения
Вы не можете голосовать в опросах
Вы не можете прикреплять файлы к сообщениям
Вы можете скачивать файлы