Сегодня идет свободное скачивание без начисления Download

Защитники (2016) WEBRip [1080p] [Тизер]

Ответить на тему
Статистика раздачи
Размер:  186 MB   |    Зарегистрирован:  1 год 10 месяцев   |    Скачан:  0 раз
Сидов:  40  [  0 KB/s  ]   Личеров:  2  [  0 KB/s  ]   Подробная статистика пиров
 
   
 
 
Автор Сообщение

Bot ®

Стаж: 3 года 6 месяцев

Сообщений: 162155

Создавать темы 08-Апр-2015 14:59

[Цитировать]

Защитники (2016) WEBRip- Производство: Россия
Жанр: Фантастика, Боевик
Режиссер: Сарик Андреасян
Актеры: Валерия Шкирандо, Алина Ланина, Станислав Ширин, Себастьян Сисак, Антон Пампушный, Вячеслав Разбегаев
Описание фильма:
Во времена Холодной войны секретная организация «Патриот» создала отряд супергероев, в который вошли участники из различных советских республик. Долгие годы героям приходилось скрывать свою сущность, однако в тяжелые для страны времена они вновь берутся за дело.
Язык: Русский
Перевод: Не требуется- -Дата российской премьеры: -\-
Продолжительность: 00:01:40
Качество видео: WEBRip
Видеокодек: MPEG-4 AVC/H.264
Битрейт видео: ~ 18.0 Mbps
Размер кадра: 1920х1080
Аудиокодек: AC3 5.1
Битрейт аудио: 448 Kbps
MediaInfo
General
Unique ID : 113476738737098810803218706847555960238 (0x555ED32D77814745406DE6949570BDAE)
Complete name : D:\zashitniki_tsr_1920.mkv
Format : Matroska
Format version : Version 4 / Version 2
File size : 186 MiB
Duration : 1mn 24s
Overall bit rate : 18.4 Mbps
Writing application : Lavf55.37.101
Writing library : Lavf55.37.101
TIMECODE : 00:00:00:00
Video
ID : 1
Format : AVC
Format/Info : Advanced Video Codec
Format profile : Baseline@L4.1
Format settings, CABAC : No
Format settings, ReFrames : 1 frame
Codec ID : V_MPEG4/ISO/AVC
Duration : 1mn 24s
Bit rate : 18.0 Mbps
Width : 1 920 pixels
Height : 1 080 pixels
Display aspect ratio : 16:9
Frame rate mode : Constant
Frame rate : 24.000 fps
Color space : YUV
Chroma subsampling : 4:2:0
Bit depth : 8 bits
Scan type : Progressive
Bits/(Pixel*Frame) : 0.362
Stream size : 177 MiB (96%)
Writing library : x264 core 119
Encoding settings : cabac=0 / ref=1 / deblock=0:0:0 / analyse=0:0 / me=dia / subme=0 / psy=1 / psy_rd=1.00:0.00 / mixed_ref=0 / me_range=16 / chroma_me=1 / trellis=0 / 8x8dct=0 / cqm=0 / deadzone=21,11 / fast_pskip=1 / chroma_qp_offset=0 / threads=4 / sliced_threads=0 / nr=0 / decimate=1 / interlaced=0 / bluray_compat=0 / constrained_intra=0 / bframes=0 / weightp=0 / keyint=250 / keyint_min=24 / scenecut=0 / intra_refresh=0 / rc=abr / mbtree=0 / bitrate=18000 / ratetol=1.0 / qcomp=0.60 / qpmin=0 / qpmax=69 / qpstep=4 / ip_ratio=1.40 / aq=0
Language : English
Default : Yes
Forced : No
Encoded date : UTC 2014-12-15 12:02:34
HANDLER_NAME : Apple Video Media Handler
Audio
ID : 2
Format : AC-3
Format/Info : Audio Coding 3
Mode extension : CM (complete main)
Format settings, Endianness : Big
Codec ID : A_AC3
Duration : 1mn 24s
Bit rate mode : Constant
Bit rate : 448 Kbps
Channel(s) : 6 channels
Channel positions : Front: L C R, Side: L R, LFE
Sampling rate : 48.0 KHz
Bit depth : 16 bits
Compression mode : Lossy
Delay relative to video : -5ms
Stream size : 4.53 MiB (2%)
Language : English
Default : Yes
Forced : No
Encoded date : UTC 2014-12-15 12:02:34
HANDLER_NAME : Apple Sound Media Handler
Скриншоты:- -Время раздачи: 24/7 до 5 скачавших!Пункт правил 5.1Примечание: выразить уважение автору раздачи и благодарность за релиз можно и нужно кнопкой
От себя: Спасибо за спасибо!-
[realmt.org].t696133.torrent 
Торрент: Зарегистрирован [ 2015-04-08 14:59 ] · 578644458DBAC1296B2EB87F0C7622278E70553D

Скачать .torrent

Скачать

15 KB

Статус: проверено
Скачан: 0 раз
Размер: 186 MB
Оценка:  3 (Голосов: 1)
Поблагодарили: 1  Спасибо   (список)
terms.php
Похожие темы
[Профиль] [ЛС]
Быстрый ответ

Имя:

      
Для отправки сообщений необходимо включить JavaScript
Показать сообщения:    
Ответить на тему

Текущее время: 23-Фев 12:19

Часовой пояс: UTC + 3



Вы можете начинать темы
Вы можете отвечать на сообщения
Вы не можете редактировать свои сообщения
Вы не можете удалять свои сообщения
Вы не можете голосовать в опросах
Вы не можете прикреплять файлы к сообщениям
Вы можете скачивать файлы