Сегодня идет свободное скачивание без начисления Download

Звездные войны: Изгой / Rogue One: A Star Wars Story (2016) WEBRip [H.264/1080p] [Тизер-Трейлер] [UKR]

Ответить на тему
Статистика раздачи
Размер:  181 MB   |    Зарегистрирован:  9 месяцев 12 дней   |    Скачан:  0 раз
Сидов:  1  [  0 KB/s  ]   Подробная статистика пиров
 
   
 
 
Автор Сообщение

Bot ®

Стаж: 4 года 5 месяцев

Сообщений: 49265

Откуда: с того берега моря

Создавать темы 07-Апр-2016 23:13

[Цитировать]

Звездные войны: Изгой / Rogue One: A Star Wars Story (2016) WEBRip - Производство: США / Lucasfilm, Walt Disney Pictures
Жанр: Фантастика, Боевик, Приключения
Режиссер: Гарет Эдвардс
Актеры: Фелисити Джонс, Мадс Миккельсен, Алан Тьюдик, Донни Йен, Бен Мендельсон, Форест Уитакер, Диего Луна, Джонатан Арис, Риз Ахмед, Артур Л. Бернштейн
Описание:
Фильм рассказывает о группе повстанцев, планирующей выкрасть чертежи «Звезды смерти», мощнейшей боевой станции Империи, способной распылять целые планеты.

Дата мировой премьеры: 14 декабря 2016
Дата российской премьеры: 15 декабря 2016, «WDSSPR» 3D
Продолжительность: 00:01:38
Качество видео: WEBRip
Язык: Украинский
Перевод: Дублированный
Видео: AVC, 1920x800 (2.40:1), 23.976 fps, 20.0 Mbps (0.397 bit/pixel)
Аудио: AC-3, 48.0 KHz, 2 ch, 448 Kbps, CBR
Mediainfo:
Код:
General
Unique ID                   : 272024216818386531933666432592721812909 (0xCCA5F55EBE0295A009B9FB976B411DAD)
Complete name               : D:\Star-Wars.TRL.UKR.mkv
Format                      : Matroska
Format version              : Version 4 / Version 2
File size                   : 181 MiB
Duration                    : 1mn 38s
Overall bit rate            : 15.4 Mbps
Writing application         : Lavf56.25.101
Writing library             : Lavf56.25.101
Video
ID                          : 1
Format                      : AVC
Format/Info                 : Advanced Video Codec
Format profile              : [url=mailto:Baseline@L4.1]Baseline@L4.1[/url]
Format settings, CABAC      : No
Format settings, ReFrames   : 1 frame
Codec ID                    : V_MPEG4/ISO/AVC
Duration                    : 1mn 38s
Bit rate                    : 14.6 Mbps
Nominal bit rate            : 20.0 Mbps
Width                       : 1 920 pixels
Height                      : 800 pixels
Display aspect ratio        : 2.40:1
Frame rate mode             : Constant
Frame rate                  : 23.976 fps
Color space                 : YUV
Chroma subsampling          : 4:2:0
Bit depth                   : 8 bits
Scan type                   : Progressive
Bits/(Pixel*Frame)          : 0.397
Stream size                 : 172 MiB (95%)
Writing library             : x264 core 144 r2533 c8a773e
Encoding settings           : cabac=0 / ref=1 / deblock=1:0:0 / analyse=0x1:0x111 / me=hex / subme=7 / psy=1 / psy_rd=1.00:0.00 / mixed_ref=0 / me_range=16 / chroma_me=1 / trellis=1 / 8x8dct=0 / cqm=0 / deadzone=21,11 / fast_pskip=1 / chroma_qp_offset=-2 / threads=6 / lookahead_threads=1 / sliced_threads=0 / nr=0 / decimate=1 / interlaced=0 / bluray_compat=0 / constrained_intra=0 / bframes=0 / weightp=0 / keyint=250 / keyint_min=25 / scenecut=40 / intra_refresh=0 / rc_lookahead=40 / rc=abr / mbtree=1 / bitrate=20000 / ratetol=1.0 / qcomp=0.60 / qpmin=10 / qpmax=51 / qpstep=4 / ip_ratio=1.41 / aq=1:1.00
Default                     : Yes
Forced                      : No
Encoded date                : UTC 2016-04-07 12:16:09
HANDLER_NAME                : VideoHandler
Audio
ID                          : 2
Format                      : AC-3
Format/Info                 : Audio Coding 3
Mode extension              : CM (complete main)
Format settings, Endianness : Big
Codec ID                    : A_AC3
Duration                    : 1mn 38s
Bit rate mode               : Constant
Bit rate                    : 448 Kbps
Channel(s)                  : 2 channels
Channel positions           : Front: L R
Sampling rate               : 48.0 KHz
Bit depth                   : 32 bits
Compression mode            : Lossy
Delay relative to video     : -5ms
Stream size                 : 5.27 MiB (3%)
Writing library             : Lavc56.41.100 ac3
Default                     : Yes
Forced                      : No
Encoded date                : UTC 2016-04-07 12:16:09
HANDLER_NAME                : SoundHandler
Знаете ли вы, что:
  • Это будет первый спин-офф киносаги «Звёздные войны», показанный в кинотеатрах.
  • Утверждают, что съёмки фильма «Звёздные войны: Изгой», первого в серии «Антология Звёздных войн», начались 1 июля 2015 года в павильонах «Pinewood Studios» в Лондоне.
  • По неподтверждённым данным, это первый полнометражный художественный фильм, в котором появится наёмник Кэд Бейн — ставший знаменитым персонаж мультсериала «Звёздные войны: Войны клонов» (2008).
  • Сюжетная канва фильма разворачивается до событий, описанных в фильме «Звёздные войны: Эпизод 4 — Новая надежда» (1977), и через пять лет после событий, о которых рассказано в мультсериале «Звёздные войны: Повстанцы» (2014).
  • В роли Дарта Вейдера может появиться Хейден Кристенсен, а говорить этот персонаж будет, возможно, голосом Джеймса Эрла Джонса. Учитывая, что действие фильма разворачивается в промежутке между событиями, о которых рассказано в фильмах «Звёздные войны: Эпизод 3 — Месть ситхов» (2005) и «Звёздные войны: Эпизод 4 — Новая надежда» (1977), появление здесь Дарта Вейдера будет вполне логичным.
  • На роль главной героини пробовались актрисы Татьяна Маслани, Руни Мара и Кейт Мара. Роль досталась Фелисити Джонс.
  • Это будет первый фильм киноэпопеи «Звёздные войны», музыку к которому написал не Джон Уильямс.
  • Утверждают, что кинопробы на различные роли в фильме проходили Джоэл Эдгертон, Доминик Уэст, Марк Стронг, Тейлор Китч, Юэль Киннаман, Сэм Уортингтон, Чарли Ханнэм и Джерард Батлер.
  • Не считая телефильма «Звёздные войны: Праздничный спецвыпуск», это будет восьмой фильм киносаги «Звёздные войны».
  • Считается, что с соответствующей компьютерной обработкой роль одного из дроидов сыграет Алан Тьюдик.
Скриншоты:
[realmt.org].t719330.torrent 
Торрент: Зарегистрирован [ 2016-04-07 23:13 ] · E1541A62FF95B207B673C7E3B6330CFE01F8748F

Скачать .torrent

Скачать

15 KB

Статус: проверено
Скачан: 0 раз
Размер: 181 MB
Оценка:  - (Голосов: 0)
Поблагодарили: 0  Спасибо
terms.php
Похожие темы
[Профиль] [ЛС]
Быстрый ответ

Имя:

      
Для отправки сообщений необходимо включить JavaScript
Показать сообщения:    
Ответить на тему

Текущее время: 20-Янв 08:45

Часовой пояс: UTC + 3



Вы можете начинать темы
Вы можете отвечать на сообщения
Вы не можете редактировать свои сообщения
Вы не можете удалять свои сообщения
Вы не можете голосовать в опросах
Вы не можете прикреплять файлы к сообщениям
Вы можете скачивать файлы