Сегодня идет свободное скачивание без начисления Download

Рога / Horns (Александр Ажа / Alexandre Aja) [2013, США, Канада, фэнтези, триллер, драма, ужасы, BDRip-AVC] MVO + Original (Eng) + Sub (Rus, Eng)

Ответить на тему
 
Автор Сообщение

Bot ®

Стаж: 8 месяцев 14 дней

Сообщений: 1753

Создавать темы 29-Июл-2016 13:27

[Цитировать]

Рога / Horns
Страна: Рога / Horns
Жанр: фэнтези, триллер, драма, ужасы
Год выпуска: 2013
Продолжительность: 01:59:55
Перевод: Профессиональный (многоголосый закадровый) | R5
Cубтитры: русские (MartinaG), английские
Оригинальная аудиодорожка: английский
Режиссер: Александр Ажа / Alexandre Aja
В ролях: Джуно Темпл, Дэниэл Рэдклифф, Хэзер Грэм, Сабрина Карпентер, Келли Гарнер, Джо Андерсон, Макс Мингелла, Джеймс Римар, Дэвид Морс, Кэтлин Куинлен
Описание: История простого американского парня по имени Иг Перриш, который просыпается рано утром с диким похмельем и обнаруживает, что у него на голове выросли настоящие рога
Вместе с рогами у героя появляется еще одно дьявольское качество: в присутствии Перриша люди начинают говорить то, что думают на самом деле, и все грязные секреты оказываются на поверхности. Теперь Иг может узнать, кто на самом деле убил его девушку, поскольку в этом преступлении обвиняют его самого, хоть и бездоказательно...

Качество видео: BDRip-AVC
Формат видео: MKV
Видео кодек: x264
Видео: AVC 1148x480 (2.40:1), 23.976 fps, ~2700 Kbps, 0.20 bit/pixel
Аудио #1: Russian AC3 6ch 48kHz 448Kbps | MVO R5
Аудио #2: English AC3 6ch 48kHz 448Kbps | Original
Формат субтитров: softsub (SRT)
Главы: есть
MediaInfo | x264
x264
--[Information] [09.01.2015 18:43:54] x264 [info]: frame I:1471 Avg QP:15.21 size: 84294
--[Information] [09.01.2015 18:43:54] x264 [info]: frame P:35583 Avg QP:17.62 size: 27580
--[Information] [09.01.2015 18:43:54] x264 [info]: frame B:135459 Avg QP:18.62 size: 9797
--[Information] [09.01.2015 18:43:54] x264 [info]: consecutive B-frames: 1.6% 1.7% 5.0% 24.7% 18.1% 34.4% 6.3% 4.6% 1.4% 0.7% 0.5% 0.6% 0.4%
--[Information] [09.01.2015 18:43:54] x264 [info]: kb/s:2704.55
General
Complete name : D:\...\Horns.2013.BDRip.x264.DD5.1.Rus.Eng-E76.mkv
Format : Matroska
Format version : Version 2
File size : 3.02 GiB
Duration : 1h 59mn
Overall bit rate : 3 603 Kbps
Movie name : Horns.2013.BDRip.x264.DD5.1.Rus.Eng-E76
Encoded date : UTC 2016-01-28 05:35:14
Writing application : mkvmerge v7.0.0 ('Where We Going') 64bit built on Jun 9 2014 15:16:27
Writing library : libebml v1.3.0 + libmatroska v1.4.1
Attachements : cover.jpg
Video
ID : 1
Format : AVC
Format/Info : Advanced Video Codec
Format profile : High@L4.1
Format settings, CABAC : Yes
Format settings, ReFrames : 10 frames
Codec ID : V_MPEG4/ISO/AVC
Duration : 1h 59mn
Bit rate : 2 635 Kbps
Width : 1 148 pixels
Height : 480 pixels
Display aspect ratio : 2.40:1
Frame rate mode : Constant
Frame rate : 23.976 fps
Color space : YUV
Chroma subsampling : 4:2:0
Bit depth : 8 bits
Scan type : Progressive
Bits/(Pixel*Frame) : 0.199
Stream size : 2.21 GiB (73%)
Title : Horns (2013)
Writing library : x264 core 142 r2491kMod 24e4fed
Encoding settings : cabac=1 / ref=10 / deblock=1:-3:-3 / analyse=0x3:0x113 / me=umh / subme=11 / psy=1 / fade_compensate=0.00 / psy_rd=1.00:0.00 / mixed_ref=1 / me_range=48 / chroma_me=1 / trellis=2 / 8x8dct=1 / cqm=0 / deadzone=21,11 / fast_pskip=1 / chroma_qp_offset=-2 / threads=6 / lookahead_threads=1 / sliced_threads=0 / nr=0 / decimate=1 / interlaced=0 / bluray_compat=0 / constrained_intra=0 / fgo=0 / bframes=12 / b_pyramid=2 / b_adapt=2 / b_bias=0 / direct=1 / weightb=1 / open_gop=0 / weightp=2 / keyint=240 / keyint_min=23 / scenecut=40 / intra_refresh=0 / rc_lookahead=0 / rc=crf / mbtree=0 / crf=17.2500 / qcomp=0.65 / qpmin=0 / qpmax=69 / qpstep=4 / vbv_maxrate=62500 / vbv_bufsize=78125 / crf_max=0.0 / nal_hrd=none / filler=0 / ip_ratio=1.40 / pb_ratio=1.20 / aq=1:1.00 / zones=166840,172512,q=30
Language : English
Default : Yes
Forced : No
Color range : Limited
Matrix coefficients : BT.709
Audio #1
ID : 2
Format : AC-3
Format/Info : Audio Coding 3
Mode extension : CM (complete main)
Format settings, Endianness : Big
Codec ID : A_AC3
Duration : 1h 59mn
Bit rate mode : Constant
Bit rate : 448 Kbps
Channel(s) : 6 channels
Channel positions : Front: L C R, Side: L R, LFE
Sampling rate : 48.0 KHz
Compression mode : Lossy
Stream size : 384 MiB (12%)
Title : MVO R5
Language : Russian
Default : Yes
Forced : No
Audio #2
ID : 3
Format : AC-3
Format/Info : Audio Coding 3
Mode extension : CM (complete main)
Format settings, Endianness : Big
Codec ID : A_AC3
Duration : 1h 59mn
Bit rate mode : Constant
Bit rate : 448 Kbps
Channel(s) : 6 channels
Channel positions : Front: L C R, Side: L R, LFE
Sampling rate : 48.0 KHz
Compression mode : Lossy
Stream size : 384 MiB (12%)
Title : Original
Language : English
Default : No
Forced : No
Text #1
ID : 4
Format : UTF-8
Codec ID : S_TEXT/UTF8
Codec ID/Info : UTF-8 Plain Text
Title : MartinaG
Language : Russian
Default : No
Forced : No
Text #2
ID : 5
Format : UTF-8
Codec ID : S_TEXT/UTF8
Codec ID/Info : UTF-8 Plain Text
Language : English
Default : No
Forced : No
Text #3
ID : 6
Format : UTF-8
Codec ID : S_TEXT/UTF8
Codec ID/Info : UTF-8 Plain Text
Title : SDH
Language : English
Default : No
Forced : No
Text #4
ID : 7
Format : UTF-8
Codec ID : S_TEXT/UTF8
Codec ID/Info : UTF-8 Plain Text
Title : SDH-Colored
Language : English
Default : No
Forced : No
Menu
00:00:00.000 : en:00:00:00.000
00:05:01.551 : en:00:05:01.551
...
01:54:02.127 : en:01:54:02.127
Скриншоты
[Профиль] [ЛС]
Показать сообщения:    
Ответить на тему

Текущее время: 23-Мар 15:23

Часовой пояс: UTC + 3



Вы не можете начинать темы
Вы не можете отвечать на сообщения
Вы не можете редактировать свои сообщения
Вы не можете удалять свои сообщения
Вы не можете голосовать в опросах
Вы не можете прикреплять файлы к сообщениям
Вы не можете скачивать файлы