Сегодня идет свободное скачивание без начисления Download

Игра в имитацию / The Imitation Game (Мортен Тильдум / Morten Tyldum) [2014, Великобритания, США, триллер, драма, военный, биография, BDRip-AVC] Dub + Original (Eng) + Sub (Rus, Eng)

Ответить на тему
 
Автор Сообщение

Bot ®

Стаж: 9 месяцев 22 дня

Сообщений: 1858

Создавать темы 29-Июл-2016 13:31

[Цитировать]

Игра в имитацию / The Imitation Game
Страна: Великобритания, США
Жанр: триллер, драма, военный, биография
Год выпуска: 2014
Продолжительность: 01:54:14
Перевод: Профессиональный (дублированный) | R5
Cубтитры: русские (Doctor_Joker), английские
Оригинальная аудиодорожка: английский
Режиссер: Мортен Тильдум / Morten Tyldum
В ролях: Бенедикт Камбербэтч, Кира Найтли, Мэттью Гуд, Рори Киннер, Аллен Лич, Мэттью Бирд, Чарльз Дэнс, Марк Стронг, Джеймс Норткот, Том Гудман-Хилл
Описание: Английский математик и логик Алан Тьюринг помогает взломать код Enigma во время Второй мировой войны

Качество видео: BDRip-AVC
Формат видео: MKV
Видео кодек: x264
Видео: AVC 1152x480 (2.40:1), 23.976 fps, ~2700 Kbps, 0.20 bit/pixel
Аудио #1: Russian AC3 6ch 48kHz 448Kbps | Dub R5
Аудио #2: English AC3 6ch 48kHz 448Kbps | Original
Формат субтитров: softsub (SRT)
Главы: есть
MediaInfo | x264
x264
--[Information] [09.03.2015 5:17:48] x264 [info]: frame I:1439 Avg QP:15.59 size: 85111
--[Information] [09.03.2015 5:17:48] x264 [info]: frame P:29767 Avg QP:18.10 size: 27213
--[Information] [09.03.2015 5:17:48] x264 [info]: frame B:133123 Avg QP:19.72 size: 10384
--[Information] [09.03.2015 5:17:48] x264 [info]: consecutive B-frames: 1.3% 0.8% 3.0% 10.7% 18.1% 43.4% 11.2% 2.3% 2.7% 1.5% 1.1% 0.5% 1.0% 1.0% 0.3% 0.3% 0.7%
--[Information] [09.03.2015 5:17:48] x264 [info]: kb/s:2701.92
General
Complete name : E:\...\The.Imitation.Game.2014.BDRip.x264.DD5.1.Rus.Eng-E76.mkv
Format : Matroska
Format version : Version 2
File size : 2.87 GiB
Duration : 1h 54mn
Overall bit rate : 3 600 Kbps
Movie name : The.Imitation.Game.2014.BDRip.x264.DD5.1.Rus.Eng-E76
Encoded date : UTC 2015-03-26 05:31:42
Writing application : mkvmerge v7.0.0 ('Where We Going') 64bit built on Jun 9 2014 15:16:27
Writing library : libebml v1.3.0 + libmatroska v1.4.1
Video
ID : 1
Format : AVC
Format/Info : Advanced Video Codec
Format profile : High@L4.1
Format settings, CABAC : Yes
Format settings, ReFrames : 12 frames
Codec ID : V_MPEG4/ISO/AVC
Bit rate : 2 633 Kbps
Width : 1 152 pixels
Height : 482 pixels
Display aspect ratio : 2.40:1
Frame rate mode : Constant
Original frame rate : 23.976 fps
Color space : YUV
Chroma subsampling : 4:2:0
Bit depth : 8 bits
Scan type : Progressive
Title : The Imitation Game (2014)
Writing library : x264 core 144 r2525kMod 40bb568
Encoding settings : cabac=1 / ref=12 / deblock=1:-3:-3 / analyse=0x3:0x113 / me=umh / subme=11 / psy=1 / fade_compensate=0.00 / psy_rd=1.00:0.00 / mixed_ref=1 / me_range=48 / chroma_me=1 / trellis=2 / 8x8dct=1 / cqm=0 / deadzone=21,11 / fast_pskip=1 / chroma_qp_offset=-2 / threads=6 / lookahead_threads=1 / sliced_threads=0 / nr=0 / decimate=1 / interlaced=0 / bluray_compat=0 / constrained_intra=0 / fgo=0 / bframes=16 / b_pyramid=2 / b_adapt=2 / b_bias=0 / direct=1 / weightb=1 / open_gop=0 / weightp=2 / keyint=240 / keyint_min=23 / scenecut=40 / intra_refresh=0 / rc_lookahead=0 / rc=crf / mbtree=0 / crf=18.0000 / qcomp=0.70 / qpmin=0 / qpmax=69 / qpstep=4 / vbv_maxrate=62500 / vbv_bufsize=78125 / crf_max=0.0 / nal_hrd=none / filler=0 / ip_ratio=1.40 / pb_ratio=1.20 / aq=1:0.80 / zones=158700,164328,q=30
Language : English
Default : Yes
Forced : No
Matrix coefficients : BT.709
Audio #1
ID : 2
Format : AC-3
Format/Info : Audio Coding 3
Mode extension : CM (complete main)
Format settings, Endianness : Big
Codec ID : A_AC3
Duration : 1h 54mn
Bit rate mode : Constant
Bit rate : 448 Kbps
Channel(s) : 6 channels
Channel positions : Front: L C R, Side: L R, LFE
Sampling rate : 48.0 KHz
Bit depth : 16 bits
Compression mode : Lossy
Stream size : 366 MiB (12%)
Title : Dub BlueBird
Language : Russian
Default : Yes
Forced : No
Audio #2
ID : 3
Format : AC-3
Format/Info : Audio Coding 3
Mode extension : CM (complete main)
Format settings, Endianness : Big
Codec ID : A_AC3
Duration : 1h 54mn
Bit rate mode : Constant
Bit rate : 448 Kbps
Channel(s) : 6 channels
Channel positions : Front: L C R, Side: L R, LFE
Sampling rate : 48.0 KHz
Bit depth : 16 bits
Compression mode : Lossy
Stream size : 366 MiB (12%)
Title : Original
Language : English
Default : No
Forced : No
Text #1
ID : 4
Format : UTF-8
Codec ID : S_TEXT/UTF8
Codec ID/Info : UTF-8 Plain Text
Title : Doctor_Jocker
Language : Russian
Default : No
Forced : No
Text #2
ID : 5
Format : UTF-8
Codec ID : S_TEXT/UTF8
Codec ID/Info : UTF-8 Plain Text
Language : English
Default : No
Forced : No
Text #3
ID : 6
Format : UTF-8
Codec ID : S_TEXT/UTF8
Codec ID/Info : UTF-8 Plain Text
Title : SDH
Language : English
Default : No
Forced : No
Menu
00:00:00.000 : :00:00:00.000
00:07:58.894 : :00:07:58.894
00:20:20.009 : :00:20:20.009
00:28:20.030 : :00:28:20.030
00:36:59.050 : :00:36:59.050
00:46:37.126 : :00:46:37.126
00:57:27.527 : :00:57:27.527
01:09:35.087 : :01:09:35.087
01:23:46.688 : :01:23:46.688
01:29:29.238 : :01:29:29.238
01:35:09.912 : :01:35:09.912
01:42:10.498 : :01:42:10.498
Скриншоты


source vs E76 vs Leonardo


[Профиль] [ЛС]
Показать сообщения:    
Ответить на тему

Текущее время: 30-Апр 21:36

Часовой пояс: UTC + 3



Вы не можете начинать темы
Вы не можете отвечать на сообщения
Вы не можете редактировать свои сообщения
Вы не можете удалять свои сообщения
Вы не можете голосовать в опросах
Вы не можете прикреплять файлы к сообщениям
Вы не можете скачивать файлы