Сегодня идет свободное скачивание без начисления Download

Дикие истории / Relatos salvajes (2014) BDRip | D | iTunes

Ответить на тему
 
Автор Сообщение

Bot ®

Стаж: 4 года 9 месяцев

Сообщений: 26811

Откуда: СССР

Создавать темы 04-Авг-2016 11:50

[Цитировать]


Оригинальное название: Relatos salvajes
Название: Дикие истории
Жанр: Триллер, драма, комедия
Режиссёр: Дамиан Сифрон
Композитор: Густаво Сантаолалла
Год: 2014
В ролях:
Лилиана Экерман, Луис Мануэль Альтамирано Гарсиа, Алехандро Анджелини, Дамиан Бенитес, Кристина Бланко, Густаво Бонфигли, Эрика Ривас, Сесар Бордон, Пабло Брикер, Мария Лаура Каккамо, Камила София Касас ..

.. Калейдоскоп узнаваемых характеров - шесть отдельных историй, смешных, безумных, шокирующих. Стремление к успеху, соперничество, неуверенность, нестабильность и, как результат, стрессы и депрессии, последствия которых часто бывают кошмарными. Таков наш мир. Гэбриела Пастернака обижали многие, с кем сводила его жизнь – девушка, учитель музыки, профессор в консерватории, дантист. И вот все они, на свою беду, оказались вместе с ним в одном самолете… Ночью в придорожной закусочной официантка узнает в посетителе ростовщика, который много лет назад довел до самоубийства ее отца. А у поварихи, в прошлом отсидевшей срок, для мести такому гаду сразу нашлось средство – крысиный яд… Городской красавчик ехал на своей мощной Audi по пустынной дороге и решил обогнать старый Peugeot, но сидевший за рулем провинциальный упырь решил не уступать. И вот уже кровавый итог бессмысленного соперничества не за горами ...
Информация:
Страна: Аргентина, Испания
Студия: Corner Producciones, El Deseo S.A., Instituto Nacional de Cine y Artes Audiovisuales
Продолжительность: 02:01:59
Перевод: Дублированный [iTunes]
Контейнер: AVI
Кодек: Xvid
Качество: BDRip ( исходник BDRemux 1080p )
Видео: ~ 1500 Кбит/сек, 720x304
Звук: 48 kHz, MPEG Layer 3, 2 ch, 192 Кбит/сек
Субтитры: Отсутствуют
-
Mediainfo:
Общее
Полное имя : Dikie.istorii.2014.BDRip.by Spirit Summer.avi
Формат : AVI
Формат/Информация : Audio Video Interleave
Размер файла : 1,45 Гбайт
Продолжительность : 2 ч. 1 м.
Общий поток : 1701 Кбит/сек
Программа кодирования : VirtualDubMod 1.5.10.3 | www.virtualdub-fr.org || (build 2550/release)
Библиотека кодирования : VirtualDubMod build 2550/release
Видео
Идентификатор : 0
Формат : MPEG-4 Visual
Профиль формата : Advanced Simple@L5
Параметр BVOP формата : 2
Параметр QPel формата : Нет
Параметр GMC формата : Без точки перехода
Параметр матрицы формата : Default (MPEG)
Идентификатор кодека : XVID
Идентификатор кодека/Подсказка : XviD
Продолжительность : 2 ч. 1 м.
Битрейт : 1500 Кбит/сек
Ширина : 720 пикселей
Высота : 304 пикселя
Соотношение сторон : 2,35:1
Частота кадров : 23,976 (23976/1000) кадра/сек
Цветовое пространство : YUV
Субдискретизация насыщенности : 4:2:0
Битовая глубина : 8 бит
Тип развёртки : Прогрессивная
Метод сжатия : С потерями
Бит/(Пиксели*Кадры) : 0.286
Размер потока : 1,28 Гбайт (88%)
Библиотека кодирования : XviD 1.2.1 (UTC 2008-12-04)
Аудио
Идентификатор : 1
Формат : MPEG Audio
Версия формата : Version 1
Профиль формата : Layer 3
Идентификатор кодека : 55
Идентификатор кодека/Подсказка : MP3
Продолжительность : 2 ч. 1 м.
Вид битрейта : Постоянный
Битрейт : 192 Кбит/сек
Каналы : 2 канала
Частота : 48,0 КГц
Метод сжатия : С потерями
Размер потока : 167 Мбайт (11%)
Выравнивание : Соединение по промежуткам
Продолжительность промежутка : 42 мс. (1,00 видеокадр)
Время предзагрузки промежутка : 504 мс.
Библиотека кодирования : LAME3.99r
Настройки программы : -m s -V 4 -q 0 -lowpass 18.6 -b 192
- -
Рецензия:
«Дикие истории» — фильм катастрофа. Катастрофа, как следствие человеческого отчаяния. Не зря на первых минутах мелькает журнал с картинкой обреченного животного. А титры подготавливают к погружению в дикую природу человека.
Фильм состоит из одной разогревающей и пяти крупнокалиберных новелл. В каждой из новелл ключевую роль играет нервный срыв человека, переступившего грань между человеком разумным и человеком дикой природы. Каждый из нас, даже будучи по натуре ягненком, в безвыходной ситуации становится волком с острыми, как лезвие, клыками, способными, на первый взгляд, разорвать в клочья даже безжалостную, неубиваемую коррупционно-бюрократическую машину.
Короткий метр картины позволяет под разным углом рассмотреть человеческую природу в бешенстве. Создатели не делят героев на хороших и плохих. Да, сперва кажется, что жертва очевидна. Однако через минуту травоядное становится хищников и в агонии злости вгрызается в шею обидчика. И теперь слово «правосудие», бегущее невидимой бегущей строкой по кадру, исчезает. Зато восстанавливается, тем самым, баланс добро-зло, ибо экс-жертва упивается кровью экс-хищника.
В подобном стиле построена каждая из новелл. Их отличие заключается только в многообразии жизненных ситуаций, приводящих к одинаковым последствиям. Зачастую авторы добавляют любви к кульминационной развязке, дабы сгладить в сердцах зрителей разыгравшийся цинизм и злорадное восхищение от поступков героев. Как говорится, любовь спасет мир. Так и в «Диких историях» любовь в конечном итоге вытаскивает заблудшие души из бездны жизненного беспредела. Но стоит оговориться, не всегда. Сначала авторы все-таки устраивают праздник жестокости. Ну а в каком фильме наоборот? «Дикие истории» хоть и наполнены кровью, но неустанно стараются внушить людям о необходимости быть добрее в сложной жизненной ситуации.
-
[Профиль] [ЛС]
Показать сообщения:    
Ответить на тему

Текущее время: 28-Фев 08:40

Часовой пояс: UTC + 3



Вы не можете начинать темы
Вы не можете отвечать на сообщения
Вы не можете редактировать свои сообщения
Вы не можете удалять свои сообщения
Вы не можете голосовать в опросах
Вы не можете прикреплять файлы к сообщениям
Вы не можете скачивать файлы