Город грехов 2: Женщина, ради которой стоит убивать / Sin City: A Dame to Kill For (2014) BDRip-AVC | Лицензия

Ответить на тему
 
Автор Сообщение

Bot ®

Стаж: 5 лет 3 месяца

Сообщений: 31118

Откуда: СССР

Создавать темы 01-Сен-2016 07:33

[Цитировать]

Информация о фильме
Название: Город грехов 2: Женщина, ради которой стоит убивать
Оригинальное название: Sin City: A Dame to Kill For
Год выпуска: 2014
Жанр: Боевик, триллер, криминал, экранизация
Выпущено: США, Aldamisa Entertainment, Demarest Films, Miramax Films, Quick Draw Productions
Режиссер: Фрэнк Миллер, Роберт Родригес
В ролях: Ева Грин, Микки Рурк, Джош Бролин, Джессика Альба, Джозеф Гордон-Левитт, Розарио Доусон, Пауэрс Бут, Деннис Хейсбёрт, Джейми Чунг, Брюс Уиллис
О фильме: В темных переулках Города Грехов Дуайт планирует жестоко отомстить женщине по имени Ава Лорд, которая его предала, в то время как Нэнси пытается смириться со смертью детектива Хартигана.

Файл
Качество: BDRip
Видео: MPEG-4 AVC, 1577 Кбит/с, 720x388
Аудио: AC3, 6 ch, 448 Кбит/с
Продолжительность: 01:42:46
Перевод: Дублированный
Релиз от: 27 сентября 2014
MI
General
Unique ID : 219047198749972202177111816998575873954 (0xA4CAF4B7DF5ACDDF80E8C675BA5B1FA2)
Complete name : C:Gorod.grehov.2014.D.BDRip.AVC.EXKinoRay.mkv
Format : Matroska
Format version : Version 2
File size : 1.45 GiB
Duration : 1h 42mn
Overall bit rate : 2 026 Kbps
Movie name : Gorod grehov 2014 from ExKinoRay
Encoded date : UTC 2014-09-26 21:43:19
Writing application : mkvmerge v4.9.1 ('Ich will') built on Jul 11 2011 23:53:15
Writing library : libebml v1.2.1 + libmatroska v1.1.1
Video
ID : 1
Format : AVC
Format/Info : Advanced Video Codec
Format profile : High@L4.1
Format settings, CABAC : Yes
Format settings, ReFrames : 9 frames
Codec ID : V_MPEG4/ISO/AVC
Duration : 1h 42mn
Bit rate : 1 577 Kbps
Width : 720 pixels
Height : 388 pixels
Display aspect ratio : 1.85:1
Frame rate mode : Constant
Frame rate : 24.000 fps
Color space : YUV
Chroma subsampling : 4:2:0
Bit depth : 8 bits
Scan type : Progressive
Bits/(Pixel*Frame) : 0.235
Stream size : 1.10 GiB (76%)
Title : Enigma
Writing library : x264 core 116 r2044 392e762
Encoding settings : cabac=1 / ref=9 / deblock=1:-3:-3 / analyse=0x3:0x113 / me=umh / subme=9 / psy=1 / psy_rd=1.00:0.20 / mixed_ref=1 / me_range=32 / chroma_me=1 / trellis=2 / 8x8dct=1 / cqm=0 / deadzone=21,11 / fast_pskip=0 / chroma_qp_offset=-3 / threads=12 / sliced_threads=0 / nr=0 / decimate=0 / interlaced=0 / bluray_compat=0 / constrained_intra=0 / bframes=9 / b_pyramid=2 / b_adapt=2 / b_bias=0 / direct=3 / weightb=1 / open_gop=0 / weightp=2 / keyint=240 / keyint_min=24 / scenecut=40 / intra_refresh=0 / rc=2pass / mbtree=0 / bitrate=1577 / ratetol=1.0 / qcomp=0.60 / qpmin=0 / qpmax=69 / qpstep=4 / cplxblur=20.0 / qblur=0.5 / ip_ratio=1.40 / pb_ratio=1.30 / aq=1:1.00
Language : English
Default : Yes
Forced : No
Audio
ID : 2
Format : AC-3
Format/Info : Audio Coding 3
Mode extension : CM (complete main)
Format settings, Endianness : Big
Codec ID : A_AC3
Duration : 1h 42mn
Bit rate mode : Constant
Bit rate : 448 Kbps
Channel(s) : 6 channels
Channel positions : Front: L C R, Side: L R, LFE
Sampling rate : 48.0 KHz
Bit depth : 16 bits
Compression mode : Lossy
Stream size : 329 MiB (22%)
Title : DUB
Language : Russian
Default : Yes
Forced : No
Menu
00:00:00.000 : en:Chapter 01
00:07:48.875 : en:Chapter 02
00:17:00.458 : en:Chapter 03
00:21:23.750 : en:Chapter 04
00:27:32.708 : en:Chapter 05
00:35:16.416 : en:Chapter 06
00:40:44.416 : en:Chapter 07
00:48:09.458 : en:Chapter 08
00:55:41.375 : en:Chapter 09
01:07:46.125 : en:Chapter 10
01:17:27.791 : en:Chapter 11
01:28:03.333 : en:Chapter 12
01:42:45.958 : en:Chapter 13
Скриншоты
[Профиль] [ЛС]
Показать сообщения:    
Ответить на тему

Текущее время: 19-Авг 01:11

Часовой пояс: UTC + 3



Вы не можете начинать темы
Вы не можете отвечать на сообщения
Вы не можете редактировать свои сообщения
Вы не можете удалять свои сообщения
Вы не можете голосовать в опросах
Вы не можете прикреплять файлы к сообщениям
Вы не можете скачивать файлы