Полицейская академия / Police Academy (1984-1994) Blu-ray [H.264/1080p] [The Complete Collection]

Ответить на тему
 
Автор Сообщение

Bot ®

Стаж: 2 года 5 месяцев

Сообщений: 6

Создавать темы 21-Сен-2016 13:15

[Цитировать]

Полицейская академия / Police Academy (1984-1994) Blu-ray [H.264/1080p]- Год выпуска: 1984, 1985, 1986, 1987, 1988, 1989, 1994
Производство: США / Warner Bros. Pictures
Жанр: Комедия, криминал
Режиссер: Хью Уилсон, Джерри Пэрис, Джим Дрейк, Алан Майерсон, Питер Бонерз, Алан Меттер
Продюсер: Пол Масланский, Джон Голдвин, Леонард С. Кролл, Дон Уэст, Сюзанн Лоре, Леонид Верещагин
Актеры: Стив Гуттенберг, Ким Кэтролл, Дж. У. Бейли, Бубба Смит, Донован Скотт, Джордж Гейнс, Эндрю Рубин, Дэвид Граф, Лесли Истербрук, Майкл Уинслоу, Мэрион Рэмси, Коллин Кэмп, Ховард Хессеман, Арт Метрано, Тим Казурински, Боб Голдтуэйт, Шэрон Стоун, Лэнс Кинси, Мэтт МакКой
Описание:
Полицейская Академия сногсшибательный сатирический салют мужчинам, женщинам и лицам неопределенного пола, которые призваны защищать общество от людей, очень похожих на них самих. Комедия, которая пользовалась сокрушительным успехом более десяти лет и вдохновила на еще шесть фильмов-продолжений и мультипликационный ТВ-сериал. Чудесная команда: мускулистый цветочник Мозес Хайтауер, волшебник звуковых эффектов Ларвелль Джонс (Майкл Уинслоу), застенчивая Лаверн Хукс и непобедимый герой Юджин Тэклберри. Инструкторы Харрис и Кэллаган намерены засыпать этих абитуриентов на экзаменах, а то их еще примут за настоящих полицейских!
Возраст: 16+ (зрителям, достигшим 16 лет)
Перевод: Дублированный, Многоголосый закадровый, Двухголосый закадровый, Одноголосый закадровый
Язык озвучки: Русский, Украинский, Английский
Субтитры: Русский, Английские (вшитые отключаемые)
Продолжительность: 01:36:24 | 01:27:09 | 01:23:43 | 01:27:16 | 01:29:50 | 01:23:55 | 01:22:41
Качество видео: Blu-ray
Описание посерийно:
Полицейская академия / Police Academy (1984)
-Полицейская академия / Police Academy (1984)
«What an Institution!»
- Год выпуска: 1984
Производство: США / Warner Bros. Pictures
Жанр: Комедия, Криминал
Режиссeр: Дин Паризо / Dean Parisot
Прoдюсер: Пол Масланский
Актeры: Стив Гуттенберг, Ким Кэтролл, Дж. У. Бейли, Бубба Смит, Донован Скотт, Джордж Гейнс, Эндрю Рубин, Дэвид Граф, Лесли Истербрук, Майкл Уинслоу
Описaние фильма:
Мирные жители США находятся в опасности! Мэр города принял новый закон — больше нет никаких ограничений при приеме на службу в полицию. Вес, пол, рост и слабые умственные способности никому не помешают поступить в полицейскую академию. Приемные комиссии ломятся от толстяков, ботаников и уличных хулиганов. Преподаватели академии в шоке и намерены любым способом избавиться от студентов. Но экзамены, физподготовка и гей-бары абсолютно не страшат новичков. Не такое видали!

Возраст: 16+ (зрителям, достигшим 16 лет)
Рейтинг MPAA: R (лицам до 17 лет обязательно присутствие взрослого)
Прoдолжительность: 01:36:24
Качество видео: Blu-ray
Пeревод: Дублированный, Многоголосый закадровый, Двухголосый закадровый, Одноголосый закадровый
Язык: Русский, Украинский, Английский
Субтитры: Русские, Английские (вшитые отключаемые)
Видео: AVC/H.264, 1920x1080 (16:9), ~19.7 Mbps, 23.976 fps
Аудио 1: AC3 2.0, 192 kbps, 48 kHz [Русский - дублированный «Варус Видео»]
Аудио 2: DTS-HD MA 1.0, 870 kbps, 48 kHz [Русский - двухголосый закадровый «Карусель»]
Аудио 3: DTS-HD MA 1.0, 878 kbps, 48 kHz [Русский - двухголосый закадровый «FDV»]
Аудио 4: AC3 2.0, 192 kbps, 48 kHz [Русский - многоголосый закадровый «ВГТРК»]
Аудио 5: AC3 2.0, 192 kbps, 48 kHz [Русский - двухголосый закадровый «НТВ»]
Аудио 6: AC3 2.0, 192 kbps, 48 kHz [Русский - двухголосый закадровый]
Аудио 7: AC3 2.0, 192 kbps, 48 kHz [Русский - многоголосый закадровый «Интер»]
Аудио 8: AC3 2.0, 192 kbps, 48 kHz [Русский - двухголосый закадровый «Universal Channel»]
Аудио 9: DTS-HD MA 1.0, 879 kbps, 48 kHz [Русский - одноголосый закадровый «А. Михалев»]
Аудио 10: AC3 2.0, 192 kbps, 48 kHz [Русский - одноголосый закадровый «М. Яроцкий»]
Аудио 11: AC3 1.0, 192 kbps, 48 kHz [Русский - одноголосый закадровый «Л. Володарский»]
Аудио 12: AC3 2.0, 192 kbps, 48 kHz [Украинский - многоголосый закадровый «1+1»]
Аудио 13: DTS-HD MA 1.0, 1052 kbps, 48 kHz [Английский - оригинал]
Аудио 14: AC3 1.0, 192 kbps, 48 kHz [Английский - комментарий]
На диске
  • Commentary by Hugh Wilson, Paul Maslansky, Steve Guttenberg, G.W. Bailey, Leslie Easterbrook, and Michael
  • Behind Academy Doors: Secret Files Revealed
  • Theatrical Trailer
BDinfo Report
DISC INFO:
Disc Title: Police_Academy_1
Disc Size: 22 157 219 604 bytes
Protection: AACS
BD-Java: Yes
BDInfo: 0.5.6
PLAYLIST REPORT:
Name: 00002.MPLS
Length: 1:36:24 (h:m:s.ms)
Size: 19 812 974 592 bytes
Total Bitrate: 27.40 Mbps
VIDEO:
Codec Bitrate Description
----- ------- -----------
MPEG-4 AVC Video 19663 kbps 1080p / 23.976 fps / 16:9 / High Profile 4.1
AUDIO:
Codec Language Bitrate Description
----- -------- ------- -----------
Dolby Digital Audio Russian 192 kbps 2.0 / 48 kHz / 192 kbps / DN -4dB
DTS-HD Master Audio Russian 870 kbps 1.0 / 48 kHz / 870 kbps / 24-bit (DTS Core: 1.0 / 48 kHz / 256 kbps / 24-bit)
DTS-HD Master Audio Russian 878 kbps 1.0 / 48 kHz / 878 kbps / 24-bit (DTS Core: 1.0 / 48 kHz / 256 kbps / 24-bit)
Dolby Digital Audio Russian 192 kbps 2.0 / 48 kHz / 192 kbps / DN -4dB
Dolby Digital Audio Russian 192 kbps 2.0 / 48 kHz / 192 kbps / DN -4dB
Dolby Digital Audio Russian 192 kbps 2.0 / 48 kHz / 192 kbps
Dolby Digital Audio Russian 192 kbps 2.0 / 48 kHz / 192 kbps / DN -4dB
Dolby Digital Audio Russian 192 kbps 2.0 / 48 kHz / 192 kbps / DN -4dB
DTS-HD Master Audio Russian 879 kbps 1.0 / 48 kHz / 879 kbps / 24-bit (DTS Core: 1.0 / 48 kHz / 256 kbps / 24-bit)
Dolby Digital Audio Russian 192 kbps 2.0 / 48 kHz / 192 kbps / DN -4dB
Dolby Digital Audio Russian 192 kbps 1.0 / 48 kHz / 192 kbps / DN -4dB
Dolby Digital Audio Ukrainian 192 kbps 2.0 / 48 kHz / 192 kbps / DN -4dB
DTS-HD Master Audio English 1052 kbps 1.0 / 48 kHz / 1052 kbps / 24-bit (DTS Core: 1.0 / 48 kHz / 768 kbps / 24-bit)
Dolby Digital Audio English 192 kbps 1.0 / 48 kHz / 192 kbps / DN -4dB
SUBTITLES:
Codec Language Bitrate Description
----- -------- ------- -----------
Presentation Graphics English 32.712 kbps
Presentation Graphics Russian 31.786 kbps
FILES:
Name Time In Length Size Total Bitrate
---- ------- ------ ---- -------------
00002.M2TS 0:00:00.000 1:36:24.820 19 812 974 592 27 400
Скриншоты:

Полицейская академия 2: Их первое задание / Police Academy 2: Their First Assignment (1985)
-Полицейская академия 2: Их первое задание / Police Academy 2: Their First Assignment (1985)
«To protect, to serve... and make you laugh. America's funniest crimebusters are back!»
- Год выпуска: 1985
Производство: США / Warner Bros. Pictures
Жанр: Комедия, Криминал
Режиссeр: Джерри Пэрис / Jerry Paris
Прoдюсер: Пол Масланский, Джон Голдвин, Леонард С. Кролл
Актeры: Стив Гуттенберг, Бубба Смит, Дэвид Граф, Майкл Уинслоу, Брюс Малер, Мэрион Рэмси, Коллин Кэмп, Ховард Хессеман, Арт Метрано, Джордж Гейнс
Описaние фильма:
Банда хулиганов творит безобразия по всему городу и опустошает карманы всех, кто находится с ними на одном тротуаре. Осторожно! Когда увальни в голубой форме решат разобраться с этими парнями, это закончится умопомрачительным смехом.

Возраст: 16+ (зрителям, достигшим 16 лет)
Рейтинг MPAA: PG-13 (детям до 13 лет просмотр нежелателен)

Прoдолжительность: 01:27:09
Качество видео: Blu-ray
Пeревод: Дублированный, Многоголосый закадровый, Двухголосый закадровый, Одноголосый закадровый
Язык: Русский, Украинский, Английский
Субтитры: Русские, Английские (вшитые отключаемые)
Видео: AVC/H.264, 1920x1080 (16:9), ~18.8 Mbps, 23.976 fps
Аудио 1: AC3 2.0, 192 kbps, 48 kHz [Русский - дублированный «Варус Видео»]
Аудио 2: DTS-HD MA 1.0, 891 kbps, 48 kHz [Русский - двухголосый закадровый «Карусель»]
Аудио 3: AC3 2.0, 192 kbps, 48 kHz [Русский - многоголосый закадровый «ВГТРК»]
Аудио 4: AC3 2.0, 192 kbps, 48 kHz [Русский - двухголосый закадровый «НТВ»]
Аудио 5: AC3 2.0, 192 kbps, 48 kHz [Русский - двухголосый закадровый]
Аудио 6: AC3 2.0, 192 kbps, 48 kHz [Русский - двухголосый закадровый «Universal Channel»]
Аудио 7: DTS-HD MA 1.0, 923 kbps, 48 kHz [Русский - одноголосый закадровый «А. Михалев»]
Аудио 8: AC3 2.0, 192 kbps, 48 kHz [Русский - одноголосый закадровый «А. Гаврилов»]
Аудио 9: AC3 2.0, 192 kbps, 48 kHz [Русский - одноголосый закадровый «Л. Володарский»]
Аудио 10: AC3 2.0, 192 kbps, 48 kHz [Украинский - многоголосый закадровый «1+1»]
Аудио 11: DTS-HD MA 1.0, 1053 kbps, 48 kHz [Английский - оригинал]
На диске
  • Accidental Heros: The Best Of
  • Theatrical Trailer
BDinfo Report
DISC INFO:
Disc Title: Police_Academy_2
Disc Size: 17 011 541 387 bytes
Protection: AACS
BD-Java: Yes
BDInfo: 0.5.6
PLAYLIST REPORT:
Name: 00002.MPLS
Length: 1:27:09 (h:m:s.ms)
Size: 16 458 719 232 bytes
Total Bitrate: 25.18 Mbps
VIDEO:
Codec Bitrate Description
----- ------- -----------
MPEG-4 AVC Video 18840 kbps 1080p / 23.976 fps / 16:9 / High Profile 4.0
AUDIO:
Codec Language Bitrate Description
----- -------- ------- -----------
Dolby Digital Audio Russian 192 kbps 2.0 / 48 kHz / 192 kbps / DN -4dB
DTS-HD Master Audio Russian 891 kbps 1.0 / 48 kHz / 891 kbps / 24-bit (DTS Core: 1.0 / 48 kHz / 512 kbps / 24-bit)
Dolby Digital Audio Russian 192 kbps 2.0 / 48 kHz / 192 kbps / DN -4dB
Dolby Digital Audio Russian 192 kbps 2.0 / 48 kHz / 192 kbps / DN -4dB
Dolby Digital Audio Russian 192 kbps 2.0 / 48 kHz / 192 kbps / DN -4dB
Dolby Digital Audio Russian 192 kbps 2.0 / 48 kHz / 192 kbps / DN -4dB
DTS-HD Master Audio Russian 923 kbps 1.0 / 48 kHz / 923 kbps / 24-bit (DTS Core: 1.0 / 48 kHz / 512 kbps / 24-bit)
Dolby Digital Audio Russian 192 kbps 2.0 / 48 kHz / 192 kbps / DN -4dB
Dolby Digital Audio Russian 192 kbps 2.0 / 48 kHz / 192 kbps / DN -4dB
Dolby Digital Audio Ukrainian 192 kbps 2.0 / 48 kHz / 192 kbps / DN -4dB
DTS-HD Master Audio English 1053 kbps 1.0 / 48 kHz / 1053 kbps / 24-bit (DTS Core: 1.0 / 48 kHz / 768 kbps / 24-bit)
SUBTITLES:
Codec Language Bitrate Description
----- -------- ------- -----------
Presentation Graphics English 38.257 kbps
Presentation Graphics Russian 41.922 kbps
FILES:
Name Time In Length Size Total Bitrate
---- ------- ------ ---- -------------
00002.M2TS 0:00:00.000 1:27:09.265 16 458 719 232 25 179
Скриншоты:

Полицейская академия 3: Переподготовка / Police Academy 3: Back in Training (1986)
-Полицейская академия 3: Переподготовка / Police Academy 3: Back in Training (1986)
«An open-and-shut case of nonstop laughter»
- Год выпуска: 1986
Производство: США / Warner Bros. Pictures
Жанр: Комедия, Криминал
Режиссeр: Джерри Пэрис
Прoдюсер: Пол Масланский, Дон Уэст
Актeры: Стив Гуттенберг, Бубба Смит, Дэвид Граф, Майкл Уинслоу, Мэрион Рэмси, Лесли Истербрук, Арт Метрано, Тим Казурински, Боб Голдтуэйт, Джордж Гейнс
Описaние фильма:
Правительство заявило, что только одна из двух полицейских школ может продолжать свою работу. Начинается жестокое состязание на выживание — ни одна из академий не желает закрываться, в дело идут все средства. Махони, Хайтауэр, Тэклберри, Джонс, Хукс и Кэллагэн под командованием несгибаемого коменданта Лассарда, мобилизуют для спасения своей Альма Матер новую команду безнадежных рекрутов.

Возраст: 16+ (зрителям, достигшим 16 лет)
Рейтинг MPAA: PG (рекомендуется присутствие родителей)

Прoдолжительность: 01:23:43
Качество видео: Blu-ray
Пeревод: Дублированный, Многоголосый закадровый, Двухголосый закадровый, Одноголосый закадровый
Язык: Русский, Украинский, Английский
Субтитры: Английские (вшитые отключаемые)
Видео: AVC/H.264, 1920x1080 (16:9), ~26.9 Mbps, 23.976 fps
Аудио 1: AC3 2.0, 192 kbps, 48 kHz [Русский - дублированный «Варус Видео»]
Аудио 2: DTS-HD MA 1.0, 1104 kbps, 48 kHz [Русский - двухголосый закадровый «Карусель»]
Аудио 3: AC3 2.0, 192 kbps, 48 kHz [Русский - двухголосый закадровый «НТВ»]
Аудио 4: AC3 2.0, 192 kbps, 48 kHz [Русский - двухголосый закадровый «Universal Channel»]
Аудио 5: AC3 2.0, 192 kbps, 48 kHz [Русский - двухголосый закадровый]
Аудио 6: DTS-HD MA 1.0, 1095 kbps, 48 kHz [Русский - одноголосый закадровый «А. Гаврилов»]
Аудио 7: AC3 2.0, 192 kbps, 48 kHz [Русский - одноголосый закадровый «М. Иванов»]
Аудио 8: AC3 2.0, 192 kbps, 48 kHz [Русский - одноголосый закадровый «Л. Володарский»]
Аудио 9: AC3 2.0, 192 kbps, 48 kHz [Украинский - многоголосый закадровый «1+1»]
Аудио 10: DTS-HD MA 1.0, 1078 kbps, 48 kHz [Английский - оригинал]
На диске
  • All Washed up: Floating Memories
  • Theatrical Trailer
BDinfo Report
DISC INFO:
Disc Title: Police_Academy_3
Disc Size: 21 839 440 258 bytes
Protection: AACS
BD-Java: Yes
BDInfo: 0.5.6
PLAYLIST REPORT:
Name: 00002.MPLS
Length: 1:23:43 (h:m:s.ms)
Size: 21 214 869 504 bytes
Total Bitrate: 33.78 Mbps
VIDEO:
Codec Bitrate Description
----- ------- -----------
MPEG-4 AVC Video 26923 kbps 1080p / 23.976 fps / 16:9 / High Profile 4.1
AUDIO:
Codec Language Bitrate Description
----- -------- ------- -----------
Dolby Digital Audio Russian 192 kbps 2.0 / 48 kHz / 192 kbps
DTS-HD Master Audio Russian 1104 kbps 1.0 / 48 kHz / 1104 kbps / 24-bit (DTS Core: 1.0 / 48 kHz / 768 kbps / 24-bit)
Dolby Digital Audio Russian 192 kbps 2.0 / 48 kHz / 192 kbps
Dolby Digital Audio Russian 192 kbps 2.0 / 48 kHz / 192 kbps
Dolby Digital Audio Russian 192 kbps 2.0 / 48 kHz / 192 kbps
DTS-HD Master Audio Russian 1095 kbps 1.0 / 48 kHz / 1095 kbps / 24-bit (DTS Core: 1.0 / 48 kHz / 768 kbps / 24-bit)
Dolby Digital Audio Russian 192 kbps 2.0 / 48 kHz / 192 kbps / DN -4dB
Dolby Digital Audio Russian 192 kbps 2.0 / 48 kHz / 192 kbps
Dolby Digital Audio Ukrainian 192 kbps 2.0 / 48 kHz / 192 kbps
DTS-HD Master Audio English 1078 kbps 1.0 / 48 kHz / 1078 kbps / 24-bit (DTS Core: 1.0 / 48 kHz / 768 kbps / 24-bit)
SUBTITLES:
Codec Language Bitrate Description
----- -------- ------- -----------
Presentation Graphics English 38.402 kbps
FILES:
Name Time In Length Size Total Bitrate
---- ------- ------ ---- -------------
00002.M2TS 0:00:00.000 1:23:43.727 21 214 869 504 33 783
Скриншоты:

Полицейская академия 4: Граждане в дозоре / Police Academy 4: Citizens on Patrol (1987)
-Полицейская академия 4: Граждане в дозоре / Police Academy 4: Citizens on Patrol (1987)
«On land, on sea, or in the air, no place is safe from them!»
- Год выпуска: 1987
Производство: США / Warner Bros. Pictures
Жанр: Комедия, Криминал
Режиссeр: Джим Дрейк / Jim Drake
Прoдюсер: Пол Масланский, Дон Уэст
Актeры: Стив Гуттенберг, Бубба Смит, Майкл Уинслоу, Дэвид Граф, Тим Казурински, Шэрон Стоун, Лесли Истербрук, Мэрион Рэмси, Лэнс Кинси, Дж. У. Бейли
Описaние фильма:
Упрямый и предприимчивый Лассард решает усилить безопасность на улице с помощью создания добровольных дружин под названием «Граждане на дежурстве». Угадайте, кто будет инструктировать обывателей? Верно, те же выпускники академии, что принимали «неуд» в своих зачетках за отличные отметки. Когда конкурент, лейтенант Харрис, наблюдает за этими упражнениями, он решает использовать их для дискредитации Академии. Но наши герои сложили свои коэффициенты умственного развития и поднялись в воздух на бипланах и воздушных шарах: кто-то должен спасать положение!

Возраст: 16+ (зрителям, достигшим 16 лет)
Рейтинг MPAA: PG (рекомендуется присутствие родителей)

Прoдолжительность: 01:27:16
Качество видео: Blu-ray
Пeревод: Дублированный, Многоголосый закадровый, Двухголосый закадровый, Одноголосый закадровый
Язык: Русский, Украинский, Английский
Субтитры: Английские (вшитые отключаемые)
Видео: AVC/H.264, 1920x1080 (16:9), ~27.4 Mbps, 23.976 fps
Аудио 1: AC3 2.0, 192 kbps, 48 kHz [Русский - дублированный «Варус Видео»]
Аудио 2: DTS-HD MA 1.0, 1114 kbps, 48 kHz [Русский - двухголосый закадровый «Карусель»]
Аудио 3: AC3 2.0, 192 kbps, 48 kHz [Русский - двухголосый закадровый «НТВ»]
Аудио 4: AC3 2.0, 192 kbps, 48 kHz [Русский - многоголосый закадровый «Россия»]
Аудио 5: AC3 5.0, 384 kbps, 48 kHz [Русский - многоголосый закадровый «Lazer Video»]
Аудио 6: DTS-HD MA 1.0, 1086 kbps, 48 kHz [Русский - одноголосый закадровый «А. Гаврилов» (позднняя версия)]
Аудио 7: AC3 2.0, 192 kbps, 48 kHz [Русский - одноголосый закадровый «А. Гаврилов» (ранняя версия)]
Аудио 8: AC3 2.0, 192 kbps, 48 kHz [Украинский - многоголосый закадровый «1+1»]
Аудио 9: DTS-HD MA 1.0, 1081 kbps, 48 kHz [Английский - оригинал]
На диске
  • Remembering a Lofty Investigation
  • Additional Scenes
  • Theatrical Trailer
BDinfo Report
DISC INFO:
Disc Title: Police_Academy_4
Disc Size: 24 019 385 175 bytes
Protection: AACS
BD-Java: Yes
BDInfo: 0.5.6
PLAYLIST REPORT:
Name: 00002.MPLS
Length: 1:27:16 (h:m:s.ms)
Size: 22 392 330 240 bytes
Total Bitrate: 34.21 Mbps
VIDEO:
Codec Bitrate Description
----- ------- -----------
MPEG-4 AVC Video 27393 kbps 1080p / 23.976 fps / 16:9 / High Profile 4.1
AUDIO:
Codec Language Bitrate Description
----- -------- ------- -----------
Dolby Digital Audio Russian 192 kbps 2.0 / 48 kHz / 192 kbps
DTS-HD Master Audio Russian 1114 kbps 1.0 / 48 kHz / 1114 kbps / 24-bit (DTS Core: 1.0 / 48 kHz / 768 kbps / 24-bit)
Dolby Digital Audio Russian 192 kbps 2.0 / 48 kHz / 192 kbps
Dolby Digital Audio Russian 192 kbps 2.0 / 48 kHz / 192 kbps
Dolby Digital Audio Russian 384 kbps 5.0 / 48 kHz / 384 kbps / DN -4dB
DTS-HD Master Audio Russian 1086 kbps 1.0 / 48 kHz / 1086 kbps / 24-bit (DTS Core: 1.0 / 48 kHz / 768 kbps / 24-bit)
Dolby Digital Audio Russian 192 kbps 2.0 / 48 kHz / 192 kbps / DN -4dB
Dolby Digital Audio Ukrainian 192 kbps 2.0 / 48 kHz / 192 kbps
DTS-HD Master Audio English 1081 kbps 1.0 / 48 kHz / 1081 kbps / 24-bit (DTS Core: 1.0 / 48 kHz / 768 kbps / 24-bit)
SUBTITLES:
Codec Language Bitrate Description
----- -------- ------- -----------
Presentation Graphics English 32.686 kbps
FILES:
Name Time In Length Size Total Bitrate
---- ------- ------ ---- -------------
00002.M2TS 0:00:00.000 1:27:16.689 22 392 330 240 34 208
Скриншоты:

Полицейская академия 5: Место назначения – Майами Бич / Police Academy 5: Assignment: Miami Beach (1988)
-Полицейская академия 5: Место назначения – Майами Бич / Police Academy 5: Assignment: Miami Beach (1988)
«Hold everything! The cadets are dropping in on Miami Beach for an all new adventure»
- Год выпуска: 1988
Производство: США / Warner Bros. Pictures
Жанр: Комедия, Криминал
Режиссeр: Алан Майерсон
Прoдюсер: Пол Масланский, Дон Уэст
Актeры: Бубба Смит, Дэвид Граф, Майкл Уинслоу, Лесли Истербрук, Мэрион Рэмси, Джанет Джонс, Лэнс Кинси, Мэтт МакКой, Дж. У. Бейли, Джордж Гейнс
Описaние фильма:
Солнце, веселье и красивые девушки. Где всему этому быть, как не в Майами Бич? На этом пятом празднике смеха наши герои летят в Майами на чествование любимого коменданта Лассарда. Но у преступников не бывает отпусков, когда отдыхают наши любимые полицейские. Лассард похищен. И даже соблазнительные пляжные вечеринки не смогут отвлечь наших неистовых бойцов от отчаянной попытки спасения заложника.

Возраст: 16+ (зрителям, достигшим 16 лет)
Рейтинг MPAA: PG (рекомендуется присутствие родителей)

Прoдолжительность: 01:29:50
Качество видео: Blu-ray
Пeревод: Дублированный, Многоголосый закадровый, Двухголосый закадровый, Одноголосый закадровый
Язык: Русский, Украинский, Английский
Субтитры: Вшитые отключаемые
Язык субтитрoв: Английский
Видео: AVC/H.264, 1920x1080 (16:9), ~27.4 Mbps, 23.976 fps
Аудио 1: AC3 2.0, 192 kbps, 48 kHz [Русский - дублированный «Варус Видео»]
Аудио 2: DTS-HD MA 1.0, 1099 kbps, 48 kHz [Русский - двухголосый закадровый «Карусель»]
Аудио 3: AC3 2.0, 192 kbps, 48 kHz [Русский - двухголосый закадровый «НТВ»]
Аудио 4: AC3 2.0, 192 kbps, 48 kHz [Русский - многоголосый закадровый «Россия»]
Аудио 5: AC3 5.0, 384 kbps, 48 kHz [Русский - многоголосый закадровый «Lazer Video»]
Аудио 6: DTS-HD MA 1.0, 1086 kbps, 48 kHz [Русский - одноголосый закадровый «А. Михалев»]
Аудио 7: AC3 2.0, 192 kbps, 48 kHz [Украинский - многоголосый закадровый «1+1»]
Аудио 8: DTS-HD MA 1.0, 1081 kbps, 48 kHz [Английский - оригинал]
На диске
  • Mistaken Identity: Case Re-Opened
  • Theatrical Trailer
BDinfo Report
DISC INFO:
Disc Title: Police_Academy_5
Disc Size: 23 427 226 546 bytes
Protection: AACS
BD-Java: Yes
BDInfo: 0.5.6
PLAYLIST REPORT:
Name: 00002.MPLS
Length: 1:29:50 (h:m:s.ms)
Size: 22 889 551 872 bytes
Total Bitrate: 33.97 Mbps
VIDEO:
Codec Bitrate Description
----- ------- -----------
MPEG-4 AVC Video 27383 kbps 1080p / 23.976 fps / 16:9 / High Profile 4.1
AUDIO:
Codec Language Bitrate Description
----- -------- ------- -----------
Dolby Digital Audio Russian 192 kbps 2.0 / 48 kHz / 192 kbps / DN -4dB
DTS-HD Master Audio Russian 1099 kbps 1.0 / 48 kHz / 1099 kbps / 24-bit (DTS Core: 1.0 / 48 kHz / 768 kbps / 24-bit)
Dolby Digital Audio Russian 192 kbps 2.0 / 48 kHz / 192 kbps / DN -4dB
Dolby Digital Audio Russian 192 kbps 2.0 / 48 kHz / 192 kbps / DN -4dB
Dolby Digital Audio Russian 384 kbps 5.0 / 48 kHz / 384 kbps / DN -4dB
DTS-HD Master Audio Russian 1086 kbps 1.0 / 48 kHz / 1086 kbps / 24-bit (DTS Core: 1.0 / 48 kHz / 768 kbps / 24-bit)
Dolby Digital Audio Ukrainian 192 kbps 2.0 / 48 kHz / 192 kbps / DN -4dB
DTS-HD Master Audio English 1071 kbps 1.0 / 48 kHz / 1071 kbps / 24-bit (DTS Core: 1.0 / 48 kHz / 768 kbps / 24-bit)
SUBTITLES:
Codec Language Bitrate Description
----- -------- ------- -----------
Presentation Graphics English 39.301 kbps
FILES:
Name Time In Length Size Total Bitrate
---- ------- ------ ---- -------------
00002.M2TS 0:00:00.000 1:29:50.718 22 889 551 872 33 969
Скриншоты:

Полицейская академия 6: Город в осаде / Police Academy 6: City Under Siege (1989)
-Полицейская академия 6: Город в осаде / Police Academy 6: City Under Siege (1989)
«THE FUNNIEST COPS ARE FUNNIER THAN EVER! They're Undercover To Unmask The Mastermind of Crime!»
- Год выпуска: 1989
Производство: США / Warner Bros. Pictures
Жанр: Комедия, Криминал
Режиссeр: Питер Бонерз / Peter Bonerz
Прoдюсер: Пол Масланский, Дон Уэст
Актeры: Бубба Смит, Дэвид Граф, Майкл Уинслоу, Лесли Истербрук, Мэрион Рэмси, Лэнс Кинси, Мэтт МакКой, Брюс Малер, Дж. У. Бейли, Джордж Гейнс
Описaние фильма:
Вспышка криминальной активности под кодовым названием «Операция Хаос» может потребовать занавеса для ничего не подозревающего города. Лучшие полицейские специалисты из знаменитой Полицейской Академии взялись за дело.

Возраст: 16+ (зрителям, достигшим 16 лет)
Рейтинг MPAA: PG (рекомендуется присутствие родителей)

Прoдолжительность: 01:23:55
Качество видео: Blu-ray
Пeревод: Дублированный, Многоголосый закадровый, Двухголосый закадровый, Одноголосый закадровый
Язык: Русский, Украинский, Английский
Субтитры: Английские (вшитые отключаемые)
Видео: AVC/H.264, 1920x1080 (16:9), ~26.9 Mbps, 23.976 fps
Аудио 1: AC3 2.0, 192 kbps, 48 kHz [Русский - дублированный «Варус Видео»]
Аудио 2: DTS-HD MA 1.0, 1079 kbps, 48 kHz [Русский - двухголосый закадровый «Карусель»]
Аудио 3: AC3 2.0, 192 kbps, 48 kHz [Русский - двухголосый закадровый «НТВ»]
Аудио 4: AC3 5.0, 384 kbps, 48 kHz [Русский - многоголосый закадровый «Lazer Video»]
Аудио 5: DTS-HD MA 1.0, 1059 kbps, 48 kHz [Русский - одноголосый закадровый «А. Гаврилов»]
Аудио 6: AC3 2.0, 192 kbps, 48 kHz [Русский - одноголосый закадровый «Л. Володарский»]
Аудио 7: AC3 1.0, 192 kbps, 48 kHz [Русский - одноголосый закадровый «Wizard»]
Аудио 8: AC3 2.0, 192 kbps, 48 kHz [Украинский - многоголосый закадровый «1+1»]
Аудио 9: DTS-HD MA 1.0, 1052 kbps, 48 kHz [Английский - оригинал]
На диске
  • Unholy Alliance: A Retrospective
  • Theatrical Trailer
BDinfo Report
DISC INFO:
Disc Title: Police_Academy_6
Disc Size: 21 796 813 442 bytes
Protection: AACS
BD-Java: Yes
BDInfo: 0.5.6
PLAYLIST REPORT:
Name: 00002.MPLS
Length: 1:23:55 (h:m:s.ms)
Size: 21 190 705 152 bytes
Total Bitrate: 33.67 Mbps
VIDEO:
Codec Bitrate Description
----- ------- -----------
MPEG-4 AVC Video 26924 kbps 1080p / 23.976 fps / 16:9 / High Profile 4.1
AUDIO:
Codec Language Bitrate Description
----- -------- ------- -----------
Dolby Digital Audio Russian 384 kbps 5.0 / 48 kHz / 384 kbps / DN -4dB
Dolby Digital Audio Russian 192 kbps 2.0 / 48 kHz / 192 kbps / DN -4dB
Dolby Digital Audio Russian 192 kbps 2.0 / 48 kHz / 192 kbps / DN -4dB
Dolby Digital Audio Russian 192 kbps 2.0 / 48 kHz / 192 kbps / DN -4dB
Dolby Digital Audio Ukrainian 192 kbps 2.0 / 48 kHz / 192 kbps / DN -4dB
DTS-HD Master Audio English 1052 kbps 1.0 / 48 kHz / 1052 kbps / 24-bit (DTS Core: 1.0 / 48 kHz / 768 kbps / 24-bit)
DTS-HD Master Audio Russian 1079 kbps 1.0 / 48 kHz / 1079 kbps / 24-bit (DTS Core: 1.0 / 48 kHz / 768 kbps / 24-bit)
DTS-HD Master Audio Russian 1059 kbps 1.0 / 48 kHz / 1059 kbps / 24-bit (DTS Core: 1.0 / 48 kHz / 768 kbps / 24-bit)
Dolby Digital Audio Russian 192 kbps 1.0 / 48 kHz / 192 kbps / DN -4dB
SUBTITLES:
Codec Language Bitrate Description
----- -------- ------- -----------
Presentation Graphics English 31.098 kbps
FILES:
Name Time In Length Size Total Bitrate
---- ------- ------ ---- -------------
00002.M2TS 0:00:00.000 1:23:55.488 21 190 705 152 33 666
Скриншоты:

Полицейская академия 7: Миссия в Москве / Police Academy: Mission to Moscow (1994)
-Полицейская академия 7: Миссия в Москве / Police Academy: Mission to Moscow (1994)
«Just when we thought the Cold War was over, leave it to these guys to heat it up again»
- Год выпуска: 1994
Производство: США / Warner Bros. Pictures
Жанр: Комедия, Криминал
Режиссeр: Алан Меттер
Прoдюсер: Пол Масланский, Сюзанн Лоре, Леонид Верещагин
Актeры: Джордж Гейнс, Майкл Уинслоу, Дэвид Граф, Лесли Истербрук, Дж. У. Бейли, Кристофер Ли, Рон Перлман, Клэр Форлани, Чарли Шлэттер, Ричард Израэль
Описaние фильма:
Полицейская академия в Москве! Русский балет. Русская водка. И русская мафия. Самая опасная операция в жизни полицейских академиков! Смогут ли они вернуться живыми?

Возраст: 16+ (зрителям, достигшим 16 лет)
Рейтинг MPAA: PG (рекомендуется присутствие родителей)

Прoдолжительность: 01:22:41
Качество видео: Blu-ray
Пeревод: Многоголосый закадровый, Двухголосый закадровый, Одноголосый закадровый
Язык: Русский, Украинский, Английский
Субтитры: Русские, Английские (вшитые отключаемые)
Видео: AVC/H.264, 1920x1080 (16:9), ~27.9 Mbps, 23.976 fps
Аудио 1: DTS-HD MA 2.0, 2044 kbps, 48 kHz [Русский - двухголосый закадровый «Карусель»]
Аудио 2: AC3 2.0, 192 kbps, 48 kHz [Русский - двухголосый закадровый «НТВ/ОРТ/Россия»]
Аудио 3: AC3 5.0, 384 kbps, 48 kHz [Русский - многоголосый закадровый «Lazer Video»]
Аудио 4: AC3 2.0, 192 kbps, 48 kHz [Русский - одноголосый закадровый «А. Гаврилов»]
Аудио 5: DTS-HD MA 2.0, 2023 kbps, 48 kHz [Русский - одноголосый закадровый «Е. Гранкин»]
Аудио 6: AC3 1.0, 192 kbps, 48 kHz [Русский - одноголосый закадровый «А. Пронин»]
Аудио 7: AC3 2.0, 192 kbps, 48 kHz [Русский - одноголосый закадровый «Wizard»]
Аудио 8: AC3 2.0, 192 kbps, 48 kHz [Украинский - многоголосый закадровый «1+1»]
Аудио 9: DTS-HD MA 2.0, 2002 kbps, 48 kHz [Английский - оригинал]
На диске
  • Underneath the Mission
  • Theatrical Trailer
BDinfo Report
DISC INFO:
Disc Title: Police_Academy_7
Disc Size: 24 275 394 898 bytes
Protection: AACS
BD-Java: Yes
BDInfo: 0.5.6
PLAYLIST REPORT:
Name: 00002.MPLS
Length: 1:22:41 (h:m:s.ms)
Size: 23 541 313 536 bytes
Total Bitrate: 37.96 Mbps
VIDEO:
Codec Bitrate Description
----- ------- -----------
MPEG-4 AVC Video 27931 kbps 1080p / 23.976 fps / 16:9 / High Profile 4.1
AUDIO:
Codec Language Bitrate Description
----- -------- ------- -----------
DTS-HD Master Audio Russian 2044 kbps 2.0 / 48 kHz / 2044 kbps / 24-bit (DTS Core: 2.0 / 48 kHz / 1509 kbps / 24-bit)
Dolby Digital Audio Russian 192 kbps 2.0 / 48 kHz / 192 kbps / DN -4dB
Dolby Digital Audio Russian 384 kbps 5.0 / 48 kHz / 384 kbps / DN -4dB
Dolby Digital Audio Russian 192 kbps 2.0 / 48 kHz / 192 kbps / DN -4dB
DTS-HD Master Audio Russian 2023 kbps 2.0 / 48 kHz / 2023 kbps / 24-bit (DTS Core: 2.0 / 48 kHz / 1509 kbps / 24-bit)
Dolby Digital Audio Russian 192 kbps 1.0 / 48 kHz / 192 kbps / DN -4dB
Dolby Digital Audio Russian 192 kbps 2.0 / 48 kHz / 192 kbps / DN -4dB
Dolby Digital Audio Russian 192 kbps 2.0 / 48 kHz / 192 kbps / DN -4dB
Dolby Digital Audio Ukrainian 192 kbps 2.0 / 48 kHz / 192 kbps / DN -4dB
DTS-HD Master Audio English 2002 kbps 2.0 / 48 kHz / 2002 kbps / 24-bit (DTS Core: 2.0 / 48 kHz / 1509 kbps / 24-bit)
SUBTITLES:
Codec Language Bitrate Description
----- -------- ------- -----------
Presentation Graphics English 32.935 kbps
Presentation Graphics Russian 37.157 kbps
FILES:
Name Time In Length Size Total Bitrate
---- ------- ------ ---- -------------
00002.M2TS 0:00:00.000 1:22:41.456 23 541 313 536 37 959
Скриншоты:

Дополнительно:
Цитата:
Диски пересобраны из оригинального Blu-ray. Используемые программы: BD Reauthor от DVDLogic Software (http://www.dvd-logic.com), Blu-Disk Studio (http://www.bludiscstudio.com) и Sonic Scenarist BD. Меню на java, сделано с нуля. Проверено на компьютере в Scenarist QC, Arcsoft TMT5/TMT3 и Dune HD Max.
Скриншоты:

[Профиль] [ЛС]
Показать сообщения:    
Ответить на тему

Текущее время: 20-Авг 11:03

Часовой пояс: UTC + 3



Вы не можете начинать темы
Вы не можете отвечать на сообщения
Вы не можете редактировать свои сообщения
Вы не можете удалять свои сообщения
Вы не можете голосовать в опросах
Вы не можете прикреплять файлы к сообщениям
Вы не можете скачивать файлы