Сегодня идет свободное скачивание без начисления Download

Полицейская академия / Police Academy (1984-1994) BDRemux [1080p] [The Complete Collection]

Ответить на тему
 
Автор Сообщение

Bot ®

Стаж: 1 год 2 месяца

Сообщений: 8

Создавать темы 21-Сен-2016 13:15

[Цитировать]

Полицейская академия / Police Academy (1984-1994) BDRemux- Производство: СШАГод выпуска: 1984,1985,1986,1987,1988,1989,1994Жанр: Комедия, Боевик, КриминалПродолжительность: 01:36:24, 01:27:09, 01:23:43, 01:27:16, 01:29:50, 01:23:55, 01:22:41Перевод: Профессиональный (дублированный), Профессиональный (многоголосый, закадровый), Профессиональный (двухголосый, закадровый), Авторский (одноголосый закадровый)Режиссер: Хью Уилсон, Джерри Пэрис, Джим Дрейк, Алан Майерсон, Питер Бонерз, Алан МеттерАктеры: Стив Гуттенберг, Ким Кэтролл, Дж. У. Бейли, Бубба Смит, Донован Скотт, Джордж Гейнс, Эндрю Рубин, Дэвид Граф, Лесли Истербрук, Майкл Уинслоу, Брюс Малер, Мэрион Рэмси, Коллин Кэмп, Ховард Хессеман, Арт Метрано, Тим Казурински, Боб Голдтуэйт, Шэрон Стоун, Лэнс Кинси, Джанет Джонс, Мэтт МакКой, Кристофер Ли, Рон Перлман, Клэр Форлани, Чарли Шлэттер, Ричард ИзраэльОписание фильма: Полицейские из Академии выходят на улицы, чтобы защищать, служить… и смешить до смерти.Банда хулиганов творит безобразия по всему городу и опустошает карманы всех, кто находится с ними на одном тротуаре. Осторожно! Когда увальни в голубой форме решат разобраться с этими парнями, это закончится умопомрачительным смехом. Завсегдатаи Полицейской Академии - от тормозного Махони до безупречно некомпетентного коменданта Лассарда вернулись, чтобы усилить законность раскатами хохота. Новички, включая Ховарда Хессемана, Тима Казурински и мастера комедии Бобкэта Голдтвэйта в роли главаря банды Зеда. Америка приветствовала возвращение бесстрашных борцов с преступностью рекордными массовыми сборами. Наслаждайтесь уличным хаосом веселья.-
Полицейская академия / Police Academy (1984) BDRemux
Полицейская академия / Police Academy (1984) BDRemux- Год выпуска: 1984
Производство: США
Жанр: Комедия, Боевик, Криминал
Перевoд: Профессиональный (дублированный), Профессиональный (многоголосый, закадровый)x2, Профессиональный (двухголосый, закадровый)x5, Авторский (одноголосый закадровый)x3
Оригинальная аудиодорожка: Английская + Коментарии
Язык субтитров: Русский, Английский
Вид субтитров: Вшитые
Режиссeр: Хью Уилсон
В рoлях: Стив Гуттенберг, Ким Кэтролл, Дж. У. Бейли, Бубба Смит, Донован Скотт, Джордж Гейнс, Эндрю Рубин, Дэвид Граф, Лесли Истербрук, Майкл Уинслоу
Описаниe: Мирные жители США находятся в опасности! Мэр города принял новый закон – больше нет никаких ограничений при приеме на службу в полицию. Вес, пол, рост и слабые умственные способности никому не помешают поступить в полицейскую академию. Приемные комиссии ломятся от толстяков, ботаников и уличных хулиганов. Преподаватели академии в шоке и намерены любым способом избавиться от студентов. Но экзамены, физподготовка и гей-бары абсолютно не страшат новичков. Не такое видали!

Продолжительнoсть: 01:36:24
Качество: BDRemux
Формат: MKV
Видео: MPEG-4 AVC, 1920x1080(16:9), 23,976fps, ~ 19663 Кbps
Аудио 1: DUB Russian, AC3, 2ch, 48 kHz, 192 kbps, (Дубляж - Варус Видео)
Аудио 2: MVO Russian, AC3, 2ch, 48 kHz, 192 kbps, (Многоголосый - ВГТРК)
Аудио 3: MVO Russian, AC3, 2ch, 48 kHz, 192 kbps, (Многоголосый - Интер)
Аудио 4: DVO Russian, DTS-HD MA, 1ch, 48 kHz, 870 kbps, 24-bit, (Двухголосый - Карусель)
Аудио 5: DVO Russian, DTS-HD MA, 1ch, 48 kHz, 878 kbps, 24-bit, (Двухголосый - FDV)
Аудио 6: DVO Russian, AC3, 2ch, 48 kHz, 192 kbps, (Двухголосый - НТВ)
Аудио 7: DVO Russian, AC3, 2ch, 48 kHz, 192 kbps, (Двухголосый - Universal Channel)
Аудио 8: DVO Russian, AC3, 2ch, 48 kHz, 192 kbps, (Двухголосый)
Аудио 9: AVO Russian, DTS-HD MA, 1ch, 48 kHz, 879 kbps, 24-bit, (Одноголосый - Михалев)
Аудио 10: AVO Russian, AC3, 1ch, 48 kHz, 192 kbps, (Одноголосый - Володарский)
Аудио 11: AVO Russian, AC3, 2ch, 48 kHz, 192 kbps, (Одноголосый - Яроцкий)
Аудио 12: MVO Ukranian, AC3, 2ch, 48 kHz, 192 kbps, (Многоголосый - 1+1)
Аудио 13: English, DTS-HD MA, 1ch, 48 kHz, 1052 kbps, 24-bit, (Оригинал)
Аудио 14: English, AC3, 1ch, 48 kHz, 192 kbps, (Коментарии)
MediaInfo
Общее
Полное имя :Полицейская академия (1984) BDRemux 1080p.mkv
Формат : Matroska
Версия формата : Version 4 / Version 2
Размер файла : 17,0 Гбайт
Продолжительность : 1 ч. 36 м.
Режим общего битрейта : Переменный
Общий поток : 25,3 Мбит/сек
Название фильма : Полицейская академия / Police Academy (1984) BDRemux 1080p (Sinteros)
Программа кодирования : mkvmerge v6.6.0 ('The Edge Of The In Between') built on Dec 1 2013 17:55:00
Библиотека кодирования : libebml v1.3.0 + libmatroska v1.4.1
Attachment : Yes
Видео
Идентификатор : 1
Формат : AVC
Формат/Информация : Advanced Video Codec
Профиль формата : High@L4.1
Параметр CABAC формата : Да
Параметр ReFrames формата : 2 кадра
Параметр GOP формата : M=1, N=10
Идентификатор кодека : V_MPEG4/ISO/AVC
Продолжительность : 1 ч. 36 м.
Вид битрейта : Переменный
Ширина : 1920 пикселей
Высота : 1080 пикселей
Соотношение сторон : 16:9
Режим частоты кадров : Постоянный
Частота кадров : 23,976 кадра/сек
Цветовое пространство : YUV
Субдискретизация насыщенности : 4:2:0
Битовая глубина : 8 бит
Тип развёртки : Прогрессивная
Заголовок : MPEG-4 AVC, 1920x1080(16:9), 23,976fps, ~ 19663 Кbps
Язык : English
Default : Да
Forced : Нет
Аудио #1
Идентификатор : 2
Формат : AC-3
Формат/Информация : Audio Coding 3
Расширение режима : CM (complete main)
Параметр Endianness формата : Big
Идентификатор кодека : A_AC3
Продолжительность : 1 ч. 36 м.
Вид битрейта : Постоянный
Битрейт : 192 Кбит/сек
Каналы : 2 канала
Расположение каналов : Front: L R
Частота : 48,0 КГц
Битовая глубина : 16 бит
Метод сжатия : С потерями
Размер потока : 132 Мбайт (1%)
Заголовок : DUB Russian, AC3, 2ch, 48 kHz, 192 kbps, (дубляж - Варус Видео)
Язык : Russian
Default : Да
Forced : Нет
Аудио #2
Идентификатор : 3
Формат : AC-3
Формат/Информация : Audio Coding 3
Расширение режима : CM (complete main)
Параметр Endianness формата : Big
Идентификатор кодека : A_AC3
Продолжительность : 1 ч. 36 м.
Вид битрейта : Постоянный
Битрейт : 192 Кбит/сек
Каналы : 2 канала
Расположение каналов : Front: L R
Частота : 48,0 КГц
Битовая глубина : 16 бит
Метод сжатия : С потерями
Размер потока : 132 Мбайт (1%)
Заголовок : MVO Russian, AC3, 2ch, 48 kHz, 192 kbps, (Многоголосый - ВГТРК)
Язык : Russian
Default : Нет
Forced : Нет
Аудио #3
Идентификатор : 4
Формат : AC-3
Формат/Информация : Audio Coding 3
Расширение режима : CM (complete main)
Параметр Endianness формата : Big
Идентификатор кодека : A_AC3
Продолжительность : 1 ч. 36 м.
Вид битрейта : Постоянный
Битрейт : 192 Кбит/сек
Каналы : 2 канала
Расположение каналов : Front: L R
Частота : 48,0 КГц
Битовая глубина : 16 бит
Метод сжатия : С потерями
Размер потока : 132 Мбайт (1%)
Заголовок : MVO Russian, AC3, 2ch, 48 kHz, 192 kbps, (Многоголосый - Интер)
Язык : Russian
Default : Нет
Forced : Нет
Аудио #4
Идентификатор : 5
Формат : DTS
Формат/Информация : Digital Theater Systems
Профиль формата : MA / Core
Режим : 16
Параметр Endianness формата : Big
Идентификатор кодека : A_DTS
Продолжительность : 1 ч. 36 м.
Вид битрейта : Переменный
Битрейт : Неизвестно / 255 Кбит/сек
Каналы : 1 канал
Расположение каналов : Front: C
Частота : 48,0 КГц
Битовая глубина : 24 бит
Метод сжатия : Без потерь / Lossy
Заголовок : DVO Russian, DTS-HD MA, 1ch, 48 kHz, 870 kbps, 24-bit, (Двухголосый - Карусель)
Язык : Russian
Default : Нет
Forced : Нет
Аудио #5
Идентификатор : 6
Формат : DTS
Формат/Информация : Digital Theater Systems
Профиль формата : MA / Core
Режим : 16
Параметр Endianness формата : Big
Идентификатор кодека : A_DTS
Продолжительность : 1 ч. 36 м.
Вид битрейта : Переменный
Битрейт : Неизвестно / 255 Кбит/сек
Каналы : 1 канал
Расположение каналов : Front: C
Частота : 48,0 КГц
Битовая глубина : 24 бит
Метод сжатия : Без потерь / Lossy
Заголовок : DVO Russian, DTS-HD MA, 1ch, 48 kHz, 878 kbps, 24-bit, (Двухголосый - FDV)
Язык : Russian
Default : Нет
Forced : Нет
Аудио #6
Идентификатор : 7
Формат : AC-3
Формат/Информация : Audio Coding 3
Расширение режима : CM (complete main)
Параметр Endianness формата : Big
Идентификатор кодека : A_AC3
Продолжительность : 1 ч. 36 м.
Вид битрейта : Постоянный
Битрейт : 192 Кбит/сек
Каналы : 2 канала
Расположение каналов : Front: L R
Частота : 48,0 КГц
Битовая глубина : 16 бит
Метод сжатия : С потерями
Размер потока : 132 Мбайт (1%)
Заголовок : DVO Russian, AC3, 2ch, 48 kHz, 192 kbps, (Двухголосый - НТВ)
Язык : Russian
Default : Нет
Forced : Нет
Аудио #7
Идентификатор : 8
Формат : AC-3
Формат/Информация : Audio Coding 3
Расширение режима : CM (complete main)
Параметр Endianness формата : Big
Идентификатор кодека : A_AC3
Продолжительность : 1 ч. 36 м.
Вид битрейта : Постоянный
Битрейт : 192 Кбит/сек
Каналы : 2 канала
Расположение каналов : Front: L R
Частота : 48,0 КГц
Битовая глубина : 16 бит
Метод сжатия : С потерями
Размер потока : 132 Мбайт (1%)
Заголовок : DVO Russian, AC3, 2ch, 48 kHz, 192 kbps, (Двухголосый - Universal Channel)
Язык : Russian
Default : Нет
Forced : Нет
Аудио #8
Идентификатор : 9
Формат : AC-3
Формат/Информация : Audio Coding 3
Расширение режима : CM (complete main)
Параметр Endianness формата : Big
Идентификатор кодека : A_AC3
Продолжительность : 1 ч. 36 м.
Вид битрейта : Постоянный
Битрейт : 192 Кбит/сек
Каналы : 2 канала
Расположение каналов : Front: L R
Частота : 48,0 КГц
Битовая глубина : 16 бит
Метод сжатия : С потерями
Размер потока : 132 Мбайт (1%)
Заголовок : DVO Russian, AC3, 2ch, 48 kHz, 192 kbps, (Двухголосый)
Язык : Russian
Default : Нет
Forced : Нет
Аудио #9
Идентификатор : 10
Формат : DTS
Формат/Информация : Digital Theater Systems
Профиль формата : MA / Core
Режим : 16
Параметр Endianness формата : Big
Идентификатор кодека : A_DTS
Продолжительность : 1 ч. 36 м.
Вид битрейта : Переменный
Битрейт : Неизвестно / 255 Кбит/сек
Каналы : 1 канал
Расположение каналов : Front: C
Частота : 48,0 КГц
Битовая глубина : 24 бит
Метод сжатия : Без потерь / Lossy
Заголовок : AVO Russian, DTS-HD MA, 1ch, 48 kHz, 879 kbps, 24-bit, (Одноголосый - Михалев)
Язык : Russian
Default : Нет
Forced : Нет
Аудио #10
Идентификатор : 11
Формат : AC-3
Формат/Информация : Audio Coding 3
Расширение режима : CM (complete main)
Параметр Endianness формата : Big
Идентификатор кодека : A_AC3
Продолжительность : 1 ч. 36 м.
Вид битрейта : Постоянный
Битрейт : 192 Кбит/сек
Каналы : 2 канала
Расположение каналов : Front: L R
Частота : 48,0 КГц
Битовая глубина : 16 бит
Метод сжатия : С потерями
Размер потока : 132 Мбайт (1%)
Заголовок : AVO Russian, AC3, 1ch, 48 kHz, 192 kbps, (Одноголосый - Володарский)
Язык : Russian
Default : Нет
Forced : Нет
Аудио #11
Идентификатор : 12
Формат : AC-3
Формат/Информация : Audio Coding 3
Расширение режима : CM (complete main)
Параметр Endianness формата : Big
Идентификатор кодека : A_AC3
Продолжительность : 1 ч. 36 м.
Вид битрейта : Постоянный
Битрейт : 192 Кбит/сек
Каналы : 1 канал
Расположение каналов : Front: C
Частота : 48,0 КГц
Битовая глубина : 16 бит
Метод сжатия : С потерями
Размер потока : 132 Мбайт (1%)
Заголовок : AVO Russian, AC3, 2ch, 48 kHz, 192 kbps, (Одноголосый - Яроцкий)
Язык : Russian
Default : Нет
Forced : Нет
Аудио #12
Идентификатор : 13
Формат : AC-3
Формат/Информация : Audio Coding 3
Расширение режима : CM (complete main)
Параметр Endianness формата : Big
Идентификатор кодека : A_AC3
Продолжительность : 1 ч. 36 м.
Вид битрейта : Постоянный
Битрейт : 192 Кбит/сек
Каналы : 2 канала
Расположение каналов : Front: L R
Частота : 48,0 КГц
Битовая глубина : 16 бит
Метод сжатия : С потерями
Размер потока : 132 Мбайт (1%)
Заголовок : MVO Ukranian, AC3, 2ch, 48 kHz, 192 kbps, (Многоголосый - 1+1)
Язык : Ukrainian
Default : Нет
Forced : Нет
Аудио #13
Идентификатор : 14
Формат : DTS
Формат/Информация : Digital Theater Systems
Профиль формата : MA / Core
Режим : 16
Параметр Endianness формата : Big
Идентификатор кодека : A_DTS
Продолжительность : 1 ч. 36 м.
Вид битрейта : Переменный
Битрейт : Неизвестно / 768 Кбит/сек
Каналы : 1 канал
Расположение каналов : Front: C
Частота : 48,0 КГц
Битовая глубина : 24 бит
Метод сжатия : Без потерь / Lossy
Заголовок : English, DTS-HD MA, 1ch, 48 kHz, 1052 kbps, 24-bit, (Оригинал)
Язык : English
Default : Нет
Forced : Нет
Аудио #14
Идентификатор : 15
Формат : AC-3
Формат/Информация : Audio Coding 3
Расширение режима : CM (complete main)
Параметр Endianness формата : Big
Идентификатор кодека : A_AC3
Продолжительность : 1 ч. 36 м.
Вид битрейта : Постоянный
Битрейт : 192 Кбит/сек
Каналы : 1 канал
Расположение каналов : Front: C
Частота : 48,0 КГц
Битовая глубина : 16 бит
Метод сжатия : С потерями
Размер потока : 132 Мбайт (1%)
Заголовок : English, AC3, 1ch, 48 kHz, 192 kbps, (Коментарии)
Язык : English
Default : Нет
Forced : Нет
Текст #1
Идентификатор : 16
Формат : PGS
Режим смешивания : zlib
Идентификатор кодека : S_HDMV/PGS
Идентификатор кодека/Информация : The same subtitle format used on BDs/HD-DVDs
Язык : Russian
Default : Нет
Forced : Нет
Текст #2
Идентификатор : 17
Формат : PGS
Режим смешивания : zlib
Идентификатор кодека : S_HDMV/PGS
Идентификатор кодека/Информация : The same subtitle format used on BDs/HD-DVDs
Язык : English
Default : Нет
Forced : Нет
Меню
00:00:00.000 : en:
00:01:09.778 : en:
00:03:51.522 : en:
00:05:36.377 : en:
00:06:50.451 : en:
00:09:35.032 : en:
00:11:07.792 : en:
00:15:15.915 : en:
00:18:30.859 : en:
00:20:38.612 : en:
00:23:03.673 : en:
00:26:58.742 : en:
00:30:31.287 : en:
00:33:21.874 : en:
00:36:33.107 : en:
00:41:48.672 : en:
00:48:53.930 : en:
00:52:03.578 : en:
00:53:26.786 : en:
01:00:42.555 : en:
01:04:53.681 : en:
01:08:49.917 : en:
01:11:36.583 : en:
01:13:45.212 : en:
01:17:03.493 : en:
01:21:11.283 : en:
01:23:22.789 : en:
01:24:46.039 : en:
01:28:13.204 : en:
01:29:48.716 : en:
01:33:01.867 : en:
01:36:18.314 : en:
Скриншоты:
Матрица: Полицейская академия 2: Их первое задание / Police Academy 2: Their First Assignment (1985) BDRemux
Полицейская академия 2: Их первое задание / Police Academy 2: Their First Assignment (1985) BDRemux- Год выпуска: 1985
Производство: США
Жанр: Комедия, Боевик, Криминал
Перевoд: Профессиональный (дублированный), Профессиональный (многоголосый, закадровый), Профессиональный (двухголосый, закадровый)x4, Авторский (одноголосый закадровый)x3
Оригинальная аудиодорожка: Английская
Язык субтитров: Русский, Английский
Вид субтитров: Вшитые
Режиссeр: Джерри Пэрис
В рoлях: Стив Гуттенберг, Бубба Смит, Дэвид Граф, Майкл Уинслоу, Брюс Малер, Мэрион Рэмси, Коллин Кэмп, Ховард Хессеман, Арт Метрано, Джордж Гейнс
Описаниe: Банда хулиганов творит безобразия по всему городу и опустошает карманы всех, кто находится с ними на одном тротуаре. Осторожно! Когда увальни в голубой форме решат разобраться с этими парнями, это закончится умопомрачительным смехом.

Продолжительнoсть: 01:27:09
Качество: BDRemux
Формат: MKV
Видео: MPEG-4 AVC, 1920x1080(16:9), 23,976fps, ~18840 Кbps
Аудио 1: DUB Russian, AC3, 2ch, 48 kHz, 192 kbps, (Дубляж - Варус Видео)
Аудио 2: MVO Russian, AC3, 2ch, 48 kHz, 192 kbps, (Многоголосый - ВГТРК)
Аудио 3: DVO Russian, DTS-HD MA, 1ch, 48 kHz, 891 kbps, 24-bit, (Двухголосый - Карусель)
Аудио 4: DVO Russian, AC3, 2ch, 48 kHz, 192 kbps, (Двухголосый - НТВ)
Аудио 5: DVO Russian, AC3, 2ch, 48 kHz, 192 kbps, (Двухголосый - Universal Channel)
Аудио 6: DVO Russian, AC3, 2ch, 48 kHz, 192 kbps, (Двухголосый)
Аудио 7: AVO Russian, DTS-HD MA, 1ch, 48 kHz, 923 kbps, 24-bit, (Одноголосый - Михалев)
Аудио 8: AVO Russian, AC3, 2ch, 48 kHz, 192 kbps, (Одноголосый - Гаврилов)
Аудио 9: AVO Russian, AC3, 2ch, 48 kHz, 192 kbps, (Одноголосый - Володарский)
Аудио 10: MVO Ukranian, AC3, 2ch, 48 kHz, 192 kbps, (Многоголосый - 1+1)
Аудио 11: English, DTS-HD MA, 1ch, 48 kHz, 1053 kbps, 24-bit, (Оригинал)
MediaInfo
Общее
Полное имя : Полицейская академия 2 (1985) BDRemux 1080p.mkv
Формат : Matroska
Версия формата : Version 4 / Version 2
Размер файла : 14,2 Гбайт
Продолжительность : 1 ч. 27 м.
Режим общего битрейта : Переменный
Общий поток : 23,3 Мбит/сек
Название фильма : Полицейская академия 2: Их первое задание / Police Academy 2: Their First Assignment (1985) BDRemux 1080p (Sinteros)
Программа кодирования : mkvmerge v6.6.0 ('The Edge Of The In Between') built on Dec 1 2013 17:55:00
Библиотека кодирования : libebml v1.3.0 + libmatroska v1.4.1
Attachment : Yes
Видео
Идентификатор : 1
Формат : AVC
Формат/Информация : Advanced Video Codec
Профиль формата : High@L4.0
Параметр CABAC формата : Да
Параметр ReFrames формата : 2 кадра
Идентификатор кодека : V_MPEG4/ISO/AVC
Продолжительность : 1 ч. 27 м.
Вид битрейта : Переменный
Ширина : 1920 пикселей
Высота : 1080 пикселей
Соотношение сторон : 16:9
Режим частоты кадров : Постоянный
Частота кадров : 23,976 кадра/сек
Цветовое пространство : YUV
Субдискретизация насыщенности : 4:2:0
Битовая глубина : 8 бит
Тип развёртки : Прогрессивная
Заголовок : MPEG-4 AVC, 1920x1080(16:9), 23,976fps, ~18840 Кbps
Язык : English
Default : Да
Forced : Нет
Аудио #1
Идентификатор : 2
Формат : AC-3
Формат/Информация : Audio Coding 3
Расширение режима : CM (complete main)
Параметр Endianness формата : Big
Идентификатор кодека : A_AC3
Продолжительность : 1 ч. 27 м.
Вид битрейта : Постоянный
Битрейт : 192 Кбит/сек
Каналы : 2 канала
Расположение каналов : Front: L R
Частота : 48,0 КГц
Битовая глубина : 16 бит
Метод сжатия : С потерями
Размер потока : 120 Мбайт (1%)
Заголовок : DUB Russian, AC3, 2ch, 48 kHz, 192 kbps, (дубляж - Варус Видео)
Язык : Russian
Default : Да
Forced : Нет
Аудио #2
Идентификатор : 3
Формат : AC-3
Формат/Информация : Audio Coding 3
Расширение режима : CM (complete main)
Параметр Endianness формата : Big
Идентификатор кодека : A_AC3
Продолжительность : 1 ч. 27 м.
Вид битрейта : Постоянный
Битрейт : 192 Кбит/сек
Каналы : 2 канала
Расположение каналов : Front: L R
Частота : 48,0 КГц
Битовая глубина : 16 бит
Метод сжатия : С потерями
Размер потока : 120 Мбайт (1%)
Заголовок : MVO Russian, AC3, 2ch, 48 kHz, 192 kbps, (Многоголосый - ВГТРК)
Язык : Russian
Default : Нет
Forced : Нет
Аудио #3
Идентификатор : 4
Формат : DTS
Формат/Информация : Digital Theater Systems
Профиль формата : MA / Core
Режим : 16
Параметр Endianness формата : Big
Идентификатор кодека : A_DTS
Продолжительность : 1 ч. 27 м.
Вид битрейта : Переменный
Битрейт : Неизвестно / 510 Кбит/сек
Каналы : 1 канал
Расположение каналов : Front: C
Частота : 48,0 КГц
Битовая глубина : 24 бит
Метод сжатия : Без потерь / Lossy
Заголовок : DVO Russian, DTS-HD MA, 1ch, 48 kHz, 891 kbps, 24-bit, (Двухголосый - Карусель)
Язык : Russian
Default : Нет
Forced : Нет
Аудио #4
Идентификатор : 5
Формат : AC-3
Формат/Информация : Audio Coding 3
Расширение режима : CM (complete main)
Параметр Endianness формата : Big
Идентификатор кодека : A_AC3
Продолжительность : 1 ч. 27 м.
Вид битрейта : Постоянный
Битрейт : 192 Кбит/сек
Каналы : 2 канала
Расположение каналов : Front: L R
Частота : 48,0 КГц
Битовая глубина : 16 бит
Метод сжатия : С потерями
Размер потока : 120 Мбайт (1%)
Заголовок : DVO Russian, AC3, 2ch, 48 kHz, 192 kbps, (Двухголосый - НТВ)
Язык : Russian
Default : Нет
Forced : Нет
Аудио #5
Идентификатор : 6
Формат : AC-3
Формат/Информация : Audio Coding 3
Расширение режима : CM (complete main)
Параметр Endianness формата : Big
Идентификатор кодека : A_AC3
Продолжительность : 1 ч. 27 м.
Вид битрейта : Постоянный
Битрейт : 192 Кбит/сек
Каналы : 2 канала
Расположение каналов : Front: L R
Частота : 48,0 КГц
Битовая глубина : 16 бит
Метод сжатия : С потерями
Размер потока : 120 Мбайт (1%)
Заголовок : DVO Russian, AC3, 2ch, 48 kHz, 192 kbps, (Двухголосый - Universal Channel)
Язык : Russian
Default : Нет
Forced : Нет
Аудио #6
Идентификатор : 7
Формат : AC-3
Формат/Информация : Audio Coding 3
Расширение режима : CM (complete main)
Параметр Endianness формата : Big
Идентификатор кодека : A_AC3
Продолжительность : 1 ч. 27 м.
Вид битрейта : Постоянный
Битрейт : 192 Кбит/сек
Каналы : 2 канала
Расположение каналов : Front: L R
Частота : 48,0 КГц
Битовая глубина : 16 бит
Метод сжатия : С потерями
Размер потока : 120 Мбайт (1%)
Заголовок : DVO Russian, AC3, 2ch, 48 kHz, 192 kbps, (Двухголосый)
Язык : Russian
Default : Нет
Forced : Нет
Аудио #7
Идентификатор : 8
Формат : DTS
Формат/Информация : Digital Theater Systems
Профиль формата : MA / Core
Режим : 16
Параметр Endianness формата : Big
Идентификатор кодека : A_DTS
Продолжительность : 1 ч. 27 м.
Вид битрейта : Переменный
Битрейт : Неизвестно / 510 Кбит/сек
Каналы : 1 канал
Расположение каналов : Front: C
Частота : 48,0 КГц
Битовая глубина : 24 бит
Метод сжатия : Без потерь / Lossy
Заголовок : AVO Russian, DTS-HD MA, 1ch, 48 kHz, 923 kbps, 24-bit, (Одноголосый - Михалев)
Язык : Russian
Default : Нет
Forced : Нет
Аудио #8
Идентификатор : 9
Формат : AC-3
Формат/Информация : Audio Coding 3
Расширение режима : CM (complete main)
Параметр Endianness формата : Big
Идентификатор кодека : A_AC3
Продолжительность : 1 ч. 27 м.
Вид битрейта : Постоянный
Битрейт : 192 Кбит/сек
Каналы : 2 канала
Расположение каналов : Front: L R
Частота : 48,0 КГц
Битовая глубина : 16 бит
Метод сжатия : С потерями
Размер потока : 120 Мбайт (1%)
Заголовок : AVO Russian, AC3, 2ch, 48 kHz, 192 kbps, (Одноголосый - Гаврилов)
Язык : Russian
Default : Нет
Forced : Нет
Аудио #9
Идентификатор : 10
Формат : AC-3
Формат/Информация : Audio Coding 3
Расширение режима : CM (complete main)
Параметр Endianness формата : Big
Идентификатор кодека : A_AC3
Продолжительность : 1 ч. 27 м.
Вид битрейта : Постоянный
Битрейт : 192 Кбит/сек
Каналы : 2 канала
Расположение каналов : Front: L R
Частота : 48,0 КГц
Битовая глубина : 16 бит
Метод сжатия : С потерями
Размер потока : 120 Мбайт (1%)
Заголовок : AVO Russian, AC3, 2ch, 48 kHz, 192 kbps, (Одноголосый - Володарский)
Язык : Russian
Default : Нет
Forced : Нет
Аудио #10
Идентификатор : 11
Формат : AC-3
Формат/Информация : Audio Coding 3
Расширение режима : CM (complete main)
Параметр Endianness формата : Big
Идентификатор кодека : A_AC3
Продолжительность : 1 ч. 27 м.
Вид битрейта : Постоянный
Битрейт : 192 Кбит/сек
Каналы : 2 канала
Расположение каналов : Front: L R
Частота : 48,0 КГц
Битовая глубина : 16 бит
Метод сжатия : С потерями
Размер потока : 120 Мбайт (1%)
Заголовок : MVO Ukranian, AC3, 2ch, 48 kHz, 192 kbps, (Многоголосый - 1+1)
Язык : Ukrainian
Default : Нет
Forced : Нет
Аудио #11
Идентификатор : 12
Формат : DTS
Формат/Информация : Digital Theater Systems
Профиль формата : MA / Core
Режим : 16
Параметр Endianness формата : Big
Идентификатор кодека : A_DTS
Продолжительность : 1 ч. 27 м.
Вид битрейта : Переменный
Битрейт : Неизвестно / 768 Кбит/сек
Каналы : 1 канал
Расположение каналов : Front: C
Частота : 48,0 КГц
Битовая глубина : 24 бит
Метод сжатия : Без потерь / Lossy
Заголовок : English, DTS-HD MA, 1ch, 48 kHz, 1053 kbps, 24-bit, (Оригинал)
Язык : English
Default : Нет
Forced : Нет
Текст #1
Идентификатор : 13
Формат : PGS
Режим смешивания : zlib
Идентификатор кодека : S_HDMV/PGS
Идентификатор кодека/Информация : The same subtitle format used on BDs/HD-DVDs
Язык : Russian
Default : Нет
Forced : Нет
Текст #2
Идентификатор : 14
Формат : PGS
Режим смешивания : zlib
Идентификатор кодека : S_HDMV/PGS
Идентификатор кодека/Информация : The same subtitle format used on BDs/HD-DVDs
Язык : English
Default : Да
Forced : Нет
Меню
00:00:00.000 : en:
00:06:53.329 : en:
00:12:16.444 : en:
00:16:45.129 : en:
00:24:58.747 : en:
00:29:04.284 : en:
00:30:40.839 : en:
00:32:30.907 : en:
00:34:40.661 : en:
00:37:46.806 : en:
00:45:53.375 : en:
00:48:06.800 : en:
00:50:45.083 : en:
00:54:03.073 : en:
00:57:17.934 : en:
00:59:33.653 : en:
01:03:55.373 : en:
01:08:08.918 : en:
01:09:56.901 : en:
01:15:20.641 : en:
01:22:12.886 : en:
01:23:51.359 : en:
01:27:03.176 : en:
Скриншоты:
Полицейская академия 3: Переподготовка / Police Academy 3: Back in Training (1986) BDRemux
Полицейская академия 3: Переподготовка / Police Academy 3: Back in Training (1986) BDRemux - Год выпуска: 1986
Производство: США
Жанр: Комедия, Боевик, Криминал
Перевoд: Профессиональный (дублированный), Профессиональный (двухголосый, закадровый)x4, Авторский (одноголосый закадровый)x3
Оригинальная аудио дорожка: Английская + Коментарии
Язык субтитров: Английский
Вид субтитров: Вшитые
Режиссeр: Джерри Пэрис
В рoлях: Стив Гуттенберг, Бубба Смит, Дэвид Граф, Майкл Уинслоу, Мэрион Рэмси, Лесли Истербрук, Арт Метрано, Тим Казурински, Боб Голдтуэйт, Джордж Гейнс
Описаниe: Правительство заявило, что только одна из двух полицейских школ может продолжать свою работу. Начинается жестокое состязание на выживание - ни одна из академий не желает закрываться, в дело идут все средства.
Махони, Хайтауэр, Тэклберри, Джонс, Хукс и Кэллагэн под командованием несгибаемого коменданта Лассарда, мобилизуют для спасения своей Альма Матер новую команду безнадежных рекрутов.

Продолжительнoсть: 01:23:43
Качество: BDRemux
Формат: MKV
Видео: MPEG-4 AVC, 1920x1080(16:9), 23,976fps, ~26923 Кbps
Аудио 1: DUB Russian, AC3, 2ch, 48 kHz, 192 kbps, (Дубляж - Варус Видео)
Аудио 2: DVO Russian, DTS-HD MA, 1ch, 48 kHz, 1104 kbps, 24-bit, (Двухголосый - Карусель)
Аудио 3: DVO Russian, AC3, 2ch, 48 kHz, 192 kbps, (Двухголосый - НТВ)
Аудио 4: DVO Russian, AC3, 2ch, 48 kHz, 192 kbps, (Двухголосый - Universal Channel)
Аудио 5: DVO Russian, AC3, 2ch, 48 kHz, 192 kbps, (Двухголосый)
Аудио 6: AVO Russian, DTS-HD MA, 1ch, 48 kHz, 1095 kbps, 24-bit, (Одноголосый - Гаврилов)
Аудио 7: AVO Russian, AC3, 2ch, 48 kHz, 192 kbps, (Одноголосый - Иванов)
Аудио 8: AVO Russian, AC3, 2ch, 48 kHz, 192 kbps, (Одноголосый - Володарский)
Аудио 9: MVO Ukranian, AC3, 2ch, 48 kHz, 192 kbps, (Многоголосый - 1+1)
Аудио 10: English, DTS-HD MA, 1ch, 48 kHz, 1053 kbps, 24-bit, (Оригинал)
MediaInfo
Общее
Полное имя : Полицейская академия 3 (1986) BDRemux 1080p.mkv
Формат : Matroska
Версия формата : Version 4 / Version 2
Размер файла : 18,5 Гбайт
Продолжительность : 1 ч. 23 м.
Режим общего битрейта : Переменный
Общий поток : 31,6 Мбит/сек
Название фильма : Полицейская академия 3: Переподготовка / Police Academy 3: Back in Training (1986) BDRemux 1080p (Sinteros)
Программа кодирования : mkvmerge v6.6.0 ('The Edge Of The In Between') built on Dec 1 2013 17:55:00
Библиотека кодирования : libebml v1.3.0 + libmatroska v1.4.1
Attachment : Yes
Видео
Идентификатор : 1
Формат : AVC
Формат/Информация : Advanced Video Codec
Профиль формата : High@L4.1
Параметр CABAC формата : Да
Параметр ReFrames формата : 2 кадра
Идентификатор кодека : V_MPEG4/ISO/AVC
Продолжительность : 1 ч. 23 м.
Вид битрейта : Переменный
Ширина : 1920 пикселей
Высота : 1080 пикселей
Соотношение сторон : 16:9
Режим частоты кадров : Постоянный
Частота кадров : 23,976 кадра/сек
Цветовое пространство : YUV
Субдискретизация насыщенности : 4:2:0
Битовая глубина : 8 бит
Тип развёртки : Прогрессивная
Заголовок : MPEG-4 AVC, 1920x1080(16:9), 23,976fps, ~26923 Кbps
Язык : English
Default : Да
Forced : Нет
Аудио #1
Идентификатор : 2
Формат : AC-3
Формат/Информация : Audio Coding 3
Расширение режима : CM (complete main)
Параметр Endianness формата : Big
Идентификатор кодека : A_AC3
Продолжительность : 1 ч. 23 м.
Вид битрейта : Постоянный
Битрейт : 192 Кбит/сек
Каналы : 2 канала
Расположение каналов : Front: L R
Частота : 48,0 КГц
Битовая глубина : 16 бит
Метод сжатия : С потерями
Размер потока : 115 Мбайт (1%)
Заголовок : DUB Russian, AC3, 2ch, 48 kHz, 192 kbps, (Дубляж - Варус Видео)
Язык : Russian
Default : Да
Forced : Нет
Аудио #2
Идентификатор : 3
Формат : DTS
Формат/Информация : Digital Theater Systems
Профиль формата : MA / Core
Режим : 16
Параметр Endianness формата : Big
Идентификатор кодека : A_DTS
Продолжительность : 1 ч. 23 м.
Вид битрейта : Переменный
Битрейт : Неизвестно / 768 Кбит/сек
Каналы : 1 канал
Расположение каналов : Front: C
Частота : 48,0 КГц
Битовая глубина : 24 бит
Метод сжатия : Без потерь / Lossy
Заголовок : DVO Russian, DTS-HD MA, 1ch, 48 kHz, 1104 kbps, 24-bit, (Двухголосый - Карусель)
Язык : Russian
Default : Нет
Forced : Нет
Аудио #3
Идентификатор : 4
Формат : AC-3
Формат/Информация : Audio Coding 3
Расширение режима : CM (complete main)
Параметр Endianness формата : Big
Идентификатор кодека : A_AC3
Продолжительность : 1 ч. 23 м.
Вид битрейта : Постоянный
Битрейт : 192 Кбит/сек
Каналы : 2 канала
Расположение каналов : Front: L R
Частота : 48,0 КГц
Битовая глубина : 16 бит
Метод сжатия : С потерями
Размер потока : 115 Мбайт (1%)
Заголовок : DVO Russian, AC3, 2ch, 48 kHz, 192 kbps, (Двухголосый - НТВ)
Язык : Russian
Default : Нет
Forced : Нет
Аудио #4
Идентификатор : 5
Формат : AC-3
Формат/Информация : Audio Coding 3
Расширение режима : CM (complete main)
Параметр Endianness формата : Big
Идентификатор кодека : A_AC3
Продолжительность : 1 ч. 23 м.
Вид битрейта : Постоянный
Битрейт : 192 Кбит/сек
Каналы : 2 канала
Расположение каналов : Front: L R
Частота : 48,0 КГц
Битовая глубина : 16 бит
Метод сжатия : С потерями
Размер потока : 115 Мбайт (1%)
Заголовок : DVO Russian, AC3, 2ch, 48 kHz, 192 kbps, (Двухголосый - Universal Channel)
Язык : Russian
Default : Нет
Forced : Нет
Аудио #5
Идентификатор : 6
Формат : AC-3
Формат/Информация : Audio Coding 3
Расширение режима : CM (complete main)
Параметр Endianness формата : Big
Идентификатор кодека : A_AC3
Продолжительность : 1 ч. 23 м.
Вид битрейта : Постоянный
Битрейт : 192 Кбит/сек
Каналы : 2 канала
Расположение каналов : Front: L R
Частота : 48,0 КГц
Битовая глубина : 16 бит
Метод сжатия : С потерями
Размер потока : 115 Мбайт (1%)
Заголовок : DVO Russian, AC3, 2ch, 48 kHz, 192 kbps, (Двухголосый)
Язык : Russian
Default : Нет
Forced : Нет
Аудио #6
Идентификатор : 7
Формат : DTS
Формат/Информация : Digital Theater Systems
Профиль формата : MA / Core
Режим : 16
Параметр Endianness формата : Big
Идентификатор кодека : A_DTS
Продолжительность : 1 ч. 23 м.
Вид битрейта : Переменный
Битрейт : Неизвестно / 768 Кбит/сек
Каналы : 1 канал
Расположение каналов : Front: C
Частота : 48,0 КГц
Битовая глубина : 24 бит
Метод сжатия : Без потерь / Lossy
Заголовок : AVO Russian, DTS-HD MA, 1ch, 48 kHz, 1095 kbps, 24-bit, (Одноголосый - Гаврилов)
Язык : Russian
Default : Нет
Forced : Нет
Аудио #7
Идентификатор : 8
Формат : AC-3
Формат/Информация : Audio Coding 3
Расширение режима : CM (complete main)
Параметр Endianness формата : Big
Идентификатор кодека : A_AC3
Продолжительность : 1 ч. 23 м.
Вид битрейта : Постоянный
Битрейт : 192 Кбит/сек
Каналы : 2 канала
Расположение каналов : Front: L R
Частота : 48,0 КГц
Битовая глубина : 16 бит
Метод сжатия : С потерями
Размер потока : 115 Мбайт (1%)
Заголовок : AVO Russian, AC3, 2ch, 48 kHz, 192 kbps, (Одноголосый - Иванов)
Язык : Russian
Default : Нет
Forced : Нет
Аудио #8
Идентификатор : 9
Формат : AC-3
Формат/Информация : Audio Coding 3
Расширение режима : CM (complete main)
Параметр Endianness формата : Big
Идентификатор кодека : A_AC3
Продолжительность : 1 ч. 23 м.
Вид битрейта : Постоянный
Битрейт : 192 Кбит/сек
Каналы : 2 канала
Расположение каналов : Front: L R
Частота : 48,0 КГц
Битовая глубина : 16 бит
Метод сжатия : С потерями
Размер потока : 115 Мбайт (1%)
Заголовок : AVO Russian, AC3, 2ch, 48 kHz, 192 kbps, (Одноголосый - Володарский)
Язык : Russian
Default : Нет
Forced : Нет
Аудио #9
Идентификатор : 10
Формат : AC-3
Формат/Информация : Audio Coding 3
Расширение режима : CM (complete main)
Параметр Endianness формата : Big
Идентификатор кодека : A_AC3
Продолжительность : 1 ч. 23 м.
Вид битрейта : Постоянный
Битрейт : 192 Кбит/сек
Каналы : 2 канала
Расположение каналов : Front: L R
Частота : 48,0 КГц
Битовая глубина : 16 бит
Метод сжатия : С потерями
Размер потока : 115 Мбайт (1%)
Заголовок : MVO Ukranian, AC3, 2ch, 48 kHz, 192 kbps, (Многоголосый - 1+1)
Язык : Ukrainian
Default : Нет
Forced : Нет
Аудио #10
Идентификатор : 11
Формат : DTS
Формат/Информация : Digital Theater Systems
Профиль формата : MA / Core
Режим : 16
Параметр Endianness формата : Big
Идентификатор кодека : A_DTS
Продолжительность : 1 ч. 23 м.
Вид битрейта : Переменный
Битрейт : Неизвестно / 768 Кбит/сек
Каналы : 1 канал
Расположение каналов : Front: C
Частота : 48,0 КГц
Битовая глубина : 24 бит
Метод сжатия : Без потерь / Lossy
Заголовок : English, DTS-HD MA, 1ch, 48 kHz, 1053 kbps, 24-bit, (Оригинал)
Язык : English
Default : Нет
Forced : Нет
Текст
Идентификатор : 12
Формат : PGS
Режим смешивания : zlib
Идентификатор кодека : S_HDMV/PGS
Идентификатор кодека/Информация : The same subtitle format used on BDs/HD-DVDs
Язык : English
Default : Нет
Forced : Нет
Меню
00:00:00.000 : en:
00:08:02.607 : en:
00:11:19.136 : en:
00:14:18.983 : en:
00:20:56.672 : en:
00:24:20.959 : en:
00:27:19.554 : en:
00:31:00.066 : en:
00:34:15.053 : en:
00:36:34.108 : en:
00:38:11.330 : en:
00:42:34.969 : en:
00:45:31.854 : en:
00:47:48.782 : en:
00:50:57.721 : en:
00:55:32.037 : en:
00:57:08.633 : en:
01:01:58.423 : en:
01:06:07.755 : en:
01:11:38.460 : en:
01:13:57.641 : en:
01:19:59.544 : en:
01:23:37.721 : en:
Скриншоты:
Полицейская академия 4: Граждане в дозоре / Police Academy 4: Citizens on Patrol (1987) BDRemux
Полицейская академия 4: Граждане в дозоре / Police Academy 4: Citizens on Patrol (1987) BDRemux - Год выпуска: 1987
Производство: США
Жанр: Комедия, Боевик, Криминал
Перевoд: Профессиональный (дублированный), Профессиональный (многоголосый, закадровый)x2, Профессиональный (двухголосый, закадровый)x2, Авторский (одноголосый закадровый)x2
Оригинальная аудио дорожка: Английская
Язык субтитров: Английский
Вид субтитров: Вшитые
Режиссeр: Джим Дрейк
В рoлях: Стив Гуттенберг, Бубба Смит, Майкл Уинслоу, Дэвид Граф, Тим Казурински, Шэрон Стоун, Лесли Истербрук, Мэрион Рэмси, Лэнс Кинси, Дж. У. Бейли
Описаниe: Упрямый и предприимчивый Лассард решает усилить безопасность на улице с помощью создания добровольных дружин под названием «Граждане на дежурстве». Угадайте, кто будет инструктировать обывателей? Верно, те же выпускники академии, что принимали «неуд» в своих зачетках за отличные отметки.
Когда конкурент, лейтенант Харрис, наблюдает за этими упражнениями, он решает использовать их для дискредитации Академии. Но наши герои сложили свои коэффициенты умственного развития и поднялись в воздух на бипланах и воздушных шарах: кто-то должен спасать положение!

Продолжительнoсть: 01:27:16
Качество: BDRemux
Формат: MKV
Видео: MPEG-4 AVC, 1920x1080(16:9), 23,976fps, ~27393 Кbps
Аудио 1: DUB Russian, AC3, 2ch, 48 kHz, 192 kbps, (Дубляж - Варус Видео)
Аудио 2: MVO Russian, AC3, 2ch, 48 kHz, 192 kbps, (Многоголосый - Россия)
Аудио 3: MVO Russian, AC3, 2ch, 48 kHz, 192 kbps, (Многоголосый - Lazer Video)
Аудио 4: DVO Russian, DTS-HD MA, 1ch, 48 kHz, 1114 kbps, 24-bit, (Двухголосый - Карусель)
Аудио 5: DVO Russian, AC3, 2ch, 48 kHz, 192 kbps, (Двухголосый - НТВ)
Аудио 6: AVO Russian, DTS-HD MA, 1ch, 48 kHz, 1086 kbps, 24-bit, (Одноголосый - Гаврилов [позднняя версия])
Аудио 7: AVO Russian, AC3, 2ch, 48 kHz, 192 kbps, (Одноголосый - Гаврилов [ранняя версия])
Аудио 8: MVO Ukranian, AC3, 2ch, 48 kHz, 192 kbps, (Многоголосый - 1+1)
Аудио 9: English, DTS-HD MA, 1ch, 48 kHz, 1081 kbps, 24-bit, (Оригинал)
MediaInfo
Общее
Полное имя : Полицейская академия 4 (1987) BDRemux 1080p.mkv
Формат : Matroska
Версия формата : Version 4 / Version 2
Размер файла : 19,5 Гбайт
Продолжительность : 1 ч. 27 м.
Режим общего битрейта : Переменный
Общий поток : 32,0 Мбит/сек
Название фильма : Полицейская академия 4: Граждане в дозоре / Police Academy 4: Citizens on Patrol (1987) BDRemux 1080p (Sinteros)
Программа кодирования : mkvmerge v6.6.0 ('The Edge Of The In Between') built on Dec 1 2013 17:55:00
Библиотека кодирования : libebml v1.3.0 + libmatroska v1.4.1
Attachment : Yes
Видео
Идентификатор : 1
Формат : AVC
Формат/Информация : Advanced Video Codec
Профиль формата : High@L4.1
Параметр CABAC формата : Да
Параметр ReFrames формата : 2 кадра
Идентификатор кодека : V_MPEG4/ISO/AVC
Продолжительность : 1 ч. 27 м.
Вид битрейта : Переменный
Ширина : 1920 пикселей
Высота : 1080 пикселей
Соотношение сторон : 16:9
Режим частоты кадров : Постоянный
Частота кадров : 23,976 кадра/сек
Цветовое пространство : YUV
Субдискретизация насыщенности : 4:2:0
Битовая глубина : 8 бит
Тип развёртки : Прогрессивная
Заголовок : MPEG-4 AVC, 1920x1080(16:9), 23,976fps, ~27393 Кbps
Язык : English
Default : Да
Forced : Нет
Аудио #1
Идентификатор : 2
Формат : AC-3
Формат/Информация : Audio Coding 3
Расширение режима : CM (complete main)
Параметр Endianness формата : Big
Идентификатор кодека : A_AC3
Продолжительность : 1 ч. 27 м.
Вид битрейта : Постоянный
Битрейт : 192 Кбит/сек
Каналы : 2 канала
Расположение каналов : Front: L R
Частота : 48,0 КГц
Битовая глубина : 16 бит
Метод сжатия : С потерями
Размер потока : 120 Мбайт (1%)
Заголовок : DUB Russian, AC3, 2ch, 48 kHz, 192 kbps, (Дубляж - Варус Видео)
Язык : Russian
Default : Да
Forced : Нет
Аудио #2
Идентификатор : 3
Формат : AC-3
Формат/Информация : Audio Coding 3
Расширение режима : CM (complete main)
Параметр Endianness формата : Big
Идентификатор кодека : A_AC3
Продолжительность : 1 ч. 27 м.
Вид битрейта : Постоянный
Битрейт : 192 Кбит/сек
Каналы : 2 канала
Расположение каналов : Front: L R
Частота : 48,0 КГц
Битовая глубина : 16 бит
Метод сжатия : С потерями
Размер потока : 120 Мбайт (1%)
Заголовок : MVO Russian, AC3, 2ch, 48 kHz, 192 kbps, (Многоголосый - Россия)
Язык : Russian
Default : Нет
Forced : Нет
Аудио #3
Идентификатор : 4
Формат : AC-3
Формат/Информация : Audio Coding 3
Расширение режима : CM (complete main)
Параметр Endianness формата : Big
Идентификатор кодека : A_AC3
Продолжительность : 1 ч. 27 м.
Вид битрейта : Постоянный
Битрейт : 384 Кбит/сек
Каналы : 5 каналов
Расположение каналов : Front: L C R, Side: L R
Частота : 48,0 КГц
Битовая глубина : 16 бит
Метод сжатия : С потерями
Размер потока : 240 Мбайт (1%)
Заголовок : MVO Russian, AC3, 2ch, 48 kHz, 192 kbps, (Многоголосый - Lazer Video)
Язык : Russian
Default : Нет
Forced : Нет
Аудио #4
Идентификатор : 5
Формат : DTS
Формат/Информация : Digital Theater Systems
Профиль формата : MA / Core
Режим : 16
Параметр Endianness формата : Big
Идентификатор кодека : A_DTS
Продолжительность : 1 ч. 27 м.
Вид битрейта : Переменный
Битрейт : Неизвестно / 768 Кбит/сек
Каналы : 1 канал
Расположение каналов : Front: C
Частота : 48,0 КГц
Битовая глубина : 24 бит
Метод сжатия : Без потерь / Lossy
Заголовок : DVO Russian, DTS-HD MA, 1ch, 48 kHz, 1114 kbps, 24-bit, (Двухголосый - Карусель)
Язык : Russian
Default : Нет
Forced : Нет
Аудио #5
Идентификатор : 6
Формат : AC-3
Формат/Информация : Audio Coding 3
Расширение режима : CM (complete main)
Параметр Endianness формата : Big
Идентификатор кодека : A_AC3
Продолжительность : 1 ч. 27 м.
Вид битрейта : Постоянный
Битрейт : 192 Кбит/сек
Каналы : 2 канала
Расположение каналов : Front: L R
Частота : 48,0 КГц
Битовая глубина : 16 бит
Метод сжатия : С потерями
Размер потока : 120 Мбайт (1%)
Заголовок : DVO Russian, AC3, 2ch, 48 kHz, 192 kbps, (Двухголосый - НТВ)
Язык : Russian
Default : Нет
Forced : Нет
Аудио #6
Идентификатор : 7
Формат : DTS
Формат/Информация : Digital Theater Systems
Профиль формата : MA / Core
Режим : 16
Параметр Endianness формата : Big
Идентификатор кодека : A_DTS
Продолжительность : 1 ч. 27 м.
Вид битрейта : Переменный
Битрейт : Неизвестно / 768 Кбит/сек
Каналы : 1 канал
Расположение каналов : Front: C
Частота : 48,0 КГц
Битовая глубина : 24 бит
Метод сжатия : Без потерь / Lossy
Заголовок : AVO Russian, DTS-HD MA, 1ch, 48 kHz, 1086 kbps, 24-bit, (Одноголосый - Гаврилов [позднняя версия])
Язык : Russian
Default : Нет
Forced : Нет
Аудио #7
Идентификатор : 8
Формат : AC-3
Формат/Информация : Audio Coding 3
Расширение режима : CM (complete main)
Параметр Endianness формата : Big
Идентификатор кодека : A_AC3
Продолжительность : 1 ч. 27 м.
Вид битрейта : Постоянный
Битрейт : 192 Кбит/сек
Каналы : 2 канала
Расположение каналов : Front: L R
Частота : 48,0 КГц
Битовая глубина : 16 бит
Метод сжатия : С потерями
Размер потока : 120 Мбайт (1%)
Заголовок : AVO Russian, AC3, 2ch, 48 kHz, 192 kbps, (Одноголосый - Гаврилов [ранняя версия])
Язык : Russian
Default : Нет
Forced : Нет
Аудио #8
Идентификатор : 9
Формат : AC-3
Формат/Информация : Audio Coding 3
Расширение режима : CM (complete main)
Параметр Endianness формата : Big
Идентификатор кодека : A_AC3
Продолжительность : 1 ч. 27 м.
Вид битрейта : Постоянный
Битрейт : 192 Кбит/сек
Каналы : 2 канала
Расположение каналов : Front: L R
Частота : 48,0 КГц
Битовая глубина : 16 бит
Метод сжатия : С потерями
Размер потока : 120 Мбайт (1%)
Заголовок : MVO Ukranian, AC3, 2ch, 48 kHz, 192 kbps, (Многоголосый - 1+1)
Язык : Ukrainian
Default : Нет
Forced : Нет
Аудио #9
Идентификатор : 10
Формат : DTS
Формат/Информация : Digital Theater Systems
Профиль формата : MA / Core
Режим : 16
Параметр Endianness формата : Big
Идентификатор кодека : A_DTS
Продолжительность : 1 ч. 27 м.
Вид битрейта : Переменный
Битрейт : Неизвестно / 768 Кбит/сек
Каналы : 1 канал
Расположение каналов : Front: C
Частота : 48,0 КГц
Битовая глубина : 24 бит
Метод сжатия : Без потерь / Lossy
Заголовок : English, DTS-HD MA, 1ch, 48 kHz, 1081 kbps, 24-bit, (Оригинал)
Язык : English
Default : Нет
Forced : Нет
Текст
Идентификатор : 11
Формат : PGS
Режим смешивания : zlib
Идентификатор кодека : S_HDMV/PGS
Идентификатор кодека/Информация : The same subtitle format used on BDs/HD-DVDs
Язык : English
Default : Нет
Forced : Нет
Меню
00:00:00.000 : en:
00:07:20.148 : en:
00:10:17.992 : en:
00:12:32.877 : en:
00:16:17.101 : en:
00:21:10.227 : en:
00:23:19.231 : en:
00:28:10.146 : en:
00:32:52.929 : en:
00:36:14.505 : en:
00:40:37.309 : en:
00:43:59.094 : en:
00:47:57.416 : en:
00:53:44.471 : en:
00:56:29.928 : en:
00:58:49.234 : en:
01:00:35.465 : en:
01:03:19.003 : en:
01:05:17.830 : en:
01:08:01.577 : en:
01:10:34.521 : en:
01:21:30.468 : en:
01:27:11.059 : en:
Скриншоты:
Полицейская академия 5: Место назначения – Майами Бич / Police Academy 5: Assignment: Miami Beach (1988) BDRemux
Полицейская академия 5: Место назначения – Майами Бич / Police Academy 5: Assignment: Miami Beach (1988) BDRemux- Год выпуска: 1988
Производство: США
Жанр: Комедия, Боевик, Криминал
Перевoд: Профессиональный (дублированный), Профессиональный (многоголосый, закадровый)x2, Профессиональный (двухголосый, закадровый)x2, Авторский (одноголосый закадровый)
Оригинальная аудио дорожка: Английская
Язык субтитров: Английский
Вид субтитров: Вшитые
Режиссeр: Алан Майерсон
В рoлях: Бубба Смит, Дэвид Граф, Майкл Уинслоу, Лесли Истербрук, Мэрион Рэмси, Джанет Джонс, Лэнс Кинси, Мэтт МакКой, Дж. У. Бейли, Джордж Гейнс
Описаниe: Солнце, веселье и красивые девушки. Где всему этому быть, как не в Майами Бич? На этом пятом празднике смеха наши герои летят в Майами на чествование любимого коменданта Лассарда. Но у преступников не бывает отпусков, когда отдыхают наши любимые полицейские.
Лассард похищен. И даже соблазнительные пляжные вечеринки не смогут отвлечь наших неистовых бойцов от отчаянной попытки спасения заложника.

Продолжительнoсть: 01:29:50
Качество: BDRemux
Формат: MKV
Видео: MPEG-4 AVC, 1920x1080(16:9), 23,976fps, ~27383 Кbps
Аудио 1: DUB Russian, AC3, 2ch, 48 kHz, 192 kbps, (Дубляж - Варус Видео)
Аудио 2: MVO Russian, AC3, 2ch, 48 kHz, 192 kbps, (Многоголосый - Россия)
Аудио 3: MVO Russian, AC3, 5ch, 48 kHz, 384 kbps, (Многоголосый - Lazer Video)
Аудио 4: DVO Russian, DTS-HD MA, 1ch, 48 kHz, 1199 kbps, 24-bit, (Двухголосый - Карусель)
Аудио 5: DVO Russian, AC3, 2ch, 48 kHz, 192 kbps, (Двухголосый - НТВ)
Аудио 6: AVO Russian, DTS-HD MA, 1ch, 48 kHz, 1086 kbps, 24-bit, (Одноголосый - Михалев)
Аудио 7: MVO Ukranian, AC3, 2ch, 48 kHz, 192 kbps, (Многоголосый - 1+1)
Аудио 8: English, DTS-HD MA, 1ch, 48 kHz, 1081 kbps, 24-bit, (Оригинал)
MediaInfo
Общее
Полное имя : Полицейская академия 5 (1988) BDRemux 1080p.mkv
Формат : Matroska
Версия формата : Version 4 / Version 2
Размер файла : 20,0 Гбайт
Продолжительность : 1 ч. 29 м.
Режим общего битрейта : Переменный
Общий поток : 31,8 Мбит/сек
Название фильма : Полицейская академия 5: Место назначения – Майами Бич / Police Academy 5: Assignment: Miami Beach (1988) BDRemux 1080p (Sinteros)
Программа кодирования : mkvmerge v6.6.0 ('The Edge Of The In Between') built on Dec 1 2013 17:55:00
Библиотека кодирования : libebml v1.3.0 + libmatroska v1.4.1
Attachment : Yes
Видео
Идентификатор : 1
Формат : AVC
Формат/Информация : Advanced Video Codec
Профиль формата : High@L4.1
Параметр CABAC формата : Да
Параметр ReFrames формата : 2 кадра
Идентификатор кодека : V_MPEG4/ISO/AVC
Продолжительность : 1 ч. 29 м.
Вид битрейта : Переменный
Ширина : 1920 пикселей
Высота : 1080 пикселей
Соотношение сторон : 16:9
Режим частоты кадров : Постоянный
Частота кадров : 23,976 кадра/сек
Цветовое пространство : YUV
Субдискретизация насыщенности : 4:2:0
Битовая глубина : 8 бит
Тип развёртки : Прогрессивная
Заголовок : MPEG-4 AVC, 1920x1080(16:9), 23,976fps, ~27383 Кbps
Язык : English
Default : Да
Forced : Нет
Аудио #1
Идентификатор : 2
Формат : AC-3
Формат/Информация : Audio Coding 3
Расширение режима : CM (complete main)
Параметр Endianness формата : Big
Идентификатор кодека : A_AC3
Продолжительность : 1 ч. 29 м.
Вид битрейта : Постоянный
Битрейт : 192 Кбит/сек
Каналы : 2 канала
Расположение каналов : Front: L R
Частота : 48,0 КГц
Битовая глубина : 16 бит
Метод сжатия : С потерями
Размер потока : 123 Мбайт (1%)
Заголовок : DUB Russian, AC3, 2ch, 48 kHz, 192 kbps, (Дубляж - Варус Видео)
Язык : Russian
Default : Да
Forced : Нет
Аудио #2
Идентификатор : 3
Формат : AC-3
Формат/Информация : Audio Coding 3
Расширение режима : CM (complete main)
Параметр Endianness формата : Big
Идентификатор кодека : A_AC3
Продолжительность : 1 ч. 29 м.
Вид битрейта : Постоянный
Битрейт : 192 Кбит/сек
Каналы : 2 канала
Расположение каналов : Front: L R
Частота : 48,0 КГц
Битовая глубина : 16 бит
Метод сжатия : С потерями
Размер потока : 123 Мбайт (1%)
Заголовок : MVO Russian, AC3, 2ch, 48 kHz, 192 kbps, (Многоголосый - Россия)
Язык : Russian
Default : Нет
Forced : Нет
Аудио #3
Идентификатор : 4
Формат : AC-3
Формат/Информация : Audio Coding 3
Расширение режима : CM (complete main)
Параметр Endianness формата : Big
Идентификатор кодека : A_AC3
Продолжительность : 1 ч. 29 м.
Вид битрейта : Постоянный
Битрейт : 384 Кбит/сек
Каналы : 5 каналов
Расположение каналов : Front: L C R, Side: L R
Частота : 48,0 КГц
Битовая глубина : 16 бит
Метод сжатия : С потерями
Размер потока : 247 Мбайт (1%)
Заголовок : MVO Russian, AC3, 5ch, 48 kHz, 384 kbps, (Многоголосый - Lazer Video)
Язык : Russian
Default : Нет
Forced : Нет
Аудио #4
Идентификатор : 5
Формат : DTS
Формат/Информация : Digital Theater Systems
Профиль формата : MA / Core
Режим : 16
Параметр Endianness формата : Big
Идентификатор кодека : A_DTS
Продолжительность : 1 ч. 29 м.
Вид битрейта : Переменный
Битрейт : Неизвестно / 768 Кбит/сек
Каналы : 1 канал
Расположение каналов : Front: C
Частота : 48,0 КГц
Битовая глубина : 24 бит
Метод сжатия : Без потерь / Lossy
Заголовок : DVO Russian, DTS-HD MA, 1ch, 48 kHz, 1199 kbps, 24-bit, (Двухголосый - Карусель)
Язык : Russian
Default : Нет
Forced : Нет
Аудио #5
Идентификатор : 6
Формат : AC-3
Формат/Информация : Audio Coding 3
Расширение режима : CM (complete main)
Параметр Endianness формата : Big
Идентификатор кодека : A_AC3
Продолжительность : 1 ч. 29 м.
Вид битрейта : Постоянный
Битрейт : 192 Кбит/сек
Каналы : 2 канала
Расположение каналов : Front: L R
Частота : 48,0 КГц
Битовая глубина : 16 бит
Метод сжатия : С потерями
Размер потока : 123 Мбайт (1%)
Заголовок : DVO Russian, AC3, 2ch, 48 kHz, 192 kbps, (Двухголосый - НТВ)
Язык : Russian
Default : Нет
Forced : Нет
Аудио #6
Идентификатор : 7
Формат : DTS
Формат/Информация : Digital Theater Systems
Профиль формата : MA / Core
Режим : 16
Параметр Endianness формата : Big
Идентификатор кодека : A_DTS
Продолжительность : 1 ч. 29 м.
Вид битрейта : Переменный
Битрейт : Неизвестно / 768 Кбит/сек
Каналы : 1 канал
Расположение каналов : Front: C
Частота : 48,0 КГц
Битовая глубина : 24 бит
Метод сжатия : Без потерь / Lossy
Заголовок : AVO Russian, DTS-HD MA, 1ch, 48 kHz, 1086 kbps, 24-bit, (Одноголосый - Михалев)
Язык : Russian
Default : Нет
Forced : Нет
Аудио #7
Идентификатор : 8
Формат : AC-3
Формат/Информация : Audio Coding 3
Расширение режима : CM (complete main)
Параметр Endianness формата : Big
Идентификатор кодека : A_AC3
Продолжительность : 1 ч. 29 м.
Вид битрейта : Постоянный
Битрейт : 192 Кбит/сек
Каналы : 2 канала
Расположение каналов : Front: L R
Частота : 48,0 КГц
Битовая глубина : 16 бит
Метод сжатия : С потерями
Размер потока : 123 Мбайт (1%)
Заголовок : MVO Ukranian, AC3, 2ch, 48 kHz, 192 kbps, (Многоголосый - 1+1)
Язык : Ukrainian
Default : Нет
Forced : Нет
Аудио #8
Идентификатор : 9
Формат : DTS
Формат/Информация : Digital Theater Systems
Профиль формата : MA / Core
Режим : 16
Параметр Endianness формата : Big
Идентификатор кодека : A_DTS
Продолжительность : 1 ч. 29 м.
Вид битрейта : Переменный
Битрейт : Неизвестно / 768 Кбит/сек
Каналы : 1 канал
Расположение каналов : Front: C
Частота : 48,0 КГц
Битовая глубина : 24 бит
Метод сжатия : Без потерь / Lossy
Заголовок : English, DTS-HD MA, 1ch, 48 kHz, 1081 kbps, 24-bit, (Оригинал)
Язык : English
Default : Нет
Forced : Нет
Текст
Идентификатор : 10
Формат : PGS
Режим смешивания : zlib
Идентификатор кодека : S_HDMV/PGS
Идентификатор кодека/Информация : The same subtitle format used on BDs/HD-DVDs
Язык : English
Default : Нет
Forced : Нет
Меню
00:00:00.000 : en:
00:05:50.516 : en:
00:10:07.857 : en:
00:15:19.752 : en:
00:17:33.051 : en:
00:21:19.569 : en:
00:27:07.459 : en:
00:32:01.294 : en:
00:36:21.804 : en:
00:41:42.750 : en:
00:45:20.092 : en:
00:47:52.911 : en:
00:50:10.966 : en:
00:56:19.834 : en:
00:57:35.493 : en:
01:03:58.209 : en:
01:10:54.750 : en:
01:15:23.769 : en:
01:20:02.255 : en:
01:21:52.115 : en:
01:24:12.005 : en:
01:27:18.733 : en:
01:29:44.420 : en:
Скриншоты:
Полицейская академия 6: Город в осаде / Police Academy 6: City Under Siege (1989) BDRemux
ППолицейская академия 6: Город в осаде / Police Academy 6: City Under Siege (1989) BDRemux- Год выпуска: 1989
Производство: США
Жанр: Комедия, Боевик, Криминал
Перевoд: Профессиональный (дублированный), Профессиональный (многоголосый, закадровый), Профессиональный (двухголосый, закадровый)x2, Авторский (одноголосый закадровый)x3
Оригинальная аудио дорожка: Английская
Язык субтитров: Английский
Вид субтитров: Вшитые
Режиссeр: Питер Бонерз
В рoлях: Бубба Смит, Дэвид Граф, Майкл Уинслоу, Лесли Истербрук, Мэрион Рэмси, Лэнс Кинси, Мэтт МакКой, Брюс Малер, Дж. У. Бейли, Джордж Гейнс
Описаниe: Вспышка криминальной активности под кодовым названием «Операция Хаос» может потребовать занавеса для ничего не подозревающего города. Лучшие полицейские специалисты из знаменитой Полицейской Академии взялись за дело.

Продолжительнoсть: 01:23:55
Качество: BDRemux
Формат: MKV
Видео: MPEG-4 AVC, 1920x1080(16:9), 23,976fps, ~26924 Кbps
Аудио 1: DUB Russian, AC3, 2ch, 48 kHz, 192 kbps, (Дубляж - Варус Видео)
Аудио 2: MVO Russian, AC3, 5ch, 48 kHz, 384 kbps, (Многоголосый - Lazer Video)
Аудио 3: DVO Russian, DTS-HD MA, 1ch, 48 kHz, 1179 kbps, 24-bit, , (Двухголосый - Карусель)
Аудио 4: DVO Russian, AC3, 2ch, 48 kHz, 192 kbps, (Двухголосый - НТВ)
Аудио 5: AVO Russian, DTS-HD MA, 1ch, 48 kHz, 1059 kbps, 24-bit, (Одноголосый - Гаврилов)
Аудио 6: AVO Russian, AC3, 2ch, 48 kHz, 192 kbps, (Одноголосый - Володарский)
Аудио 7: AVO Russian, AC3, 1ch, 48 kHz, 192 kbps, (Одноголосый - Wizard)
Аудио 8: MVO Ukranian, AC3, 2ch, 48 kHz, 192 kbps, (Многоголосый - 1+1)
Аудио 9: English, DTS-HD MA, 1ch, 48 kHz, 1052 kbps, 24-bit,(Оригинал)
MediaInfo
Общее
Полное имя : Полицейская академия 6 (1989) BDRemux 1080p.mkv
Формат : Matroska
Версия формата : Version 4 / Version 2
Размер файла : 18,5 Гбайт
Продолжительность : 1 ч. 23 м.
Режим общего битрейта : Переменный
Общий поток : 31,5 Мбит/сек
Название фильма : Полицейская академия 6: Город в осаде / Police Academy 6: City Under Siege (1989) BDRemux 1080p (Sinteros)
Программа кодирования : mkvmerge v6.6.0 ('The Edge Of The In Between') built on Dec 1 2013 17:55:00
Библиотека кодирования : libebml v1.3.0 + libmatroska v1.4.1
Attachment : Yes
Видео
Идентификатор : 1
Формат : AVC
Формат/Информация : Advanced Video Codec
Профиль формата : High@L4.1
Параметр CABAC формата : Да
Параметр ReFrames формата : 2 кадра
Идентификатор кодека : V_MPEG4/ISO/AVC
Продолжительность : 1 ч. 23 м.
Вид битрейта : Переменный
Ширина : 1920 пикселей
Высота : 1080 пикселей
Соотношение сторон : 16:9
Режим частоты кадров : Постоянный
Частота кадров : 23,976 кадра/сек
Цветовое пространство : YUV
Субдискретизация насыщенности : 4:2:0
Битовая глубина : 8 бит
Тип развёртки : Прогрессивная
Заголовок : MPEG-4 AVC, 1920x1080(16:9), 23,976fps, ~26924 Кbps
Язык : English
Default : Да
Forced : Нет
Аудио #1
Идентификатор : 2
Формат : AC-3
Формат/Информация : Audio Coding 3
Расширение режима : CM (complete main)
Параметр Endianness формата : Big
Идентификатор кодека : A_AC3
Продолжительность : 1 ч. 23 м.
Вид битрейта : Постоянный
Битрейт : 192 Кбит/сек
Каналы : 2 канала
Расположение каналов : Front: L R
Частота : 48,0 КГц
Битовая глубина : 16 бит
Метод сжатия : С потерями
Размер потока : 115 Мбайт (1%)
Заголовок : DUB Russian, AC3, 2ch, 48 kHz, 192 kbps, (Дубляж - Варус Видео)
Язык : Russian
Default : Да
Forced : Нет
Аудио #2
Идентификатор : 3
Формат : AC-3
Формат/Информация : Audio Coding 3
Расширение режима : CM (complete main)
Параметр Endianness формата : Big
Идентификатор кодека : A_AC3
Продолжительность : 1 ч. 23 м.
Вид битрейта : Постоянный
Битрейт : 384 Кбит/сек
Каналы : 5 каналов
Расположение каналов : Front: L C R, Side: L R
Частота : 48,0 КГц
Битовая глубина : 16 бит
Метод сжатия : С потерями
Размер потока : 231 Мбайт (1%)
Заголовок : MVO Russian, AC3, 5ch, 48 kHz, 384 kbps, (Многоголосый - Lazer Video)
Язык : Russian
Default : Нет
Forced : Нет
Аудио #3
Идентификатор : 4
Формат : DTS
Формат/Информация : Digital Theater Systems
Профиль формата : MA / Core
Режим : 16
Параметр Endianness формата : Big
Идентификатор кодека : A_DTS
Продолжительность : 1 ч. 23 м.
Вид битрейта : Переменный
Битрейт : Неизвестно / 768 Кбит/сек
Каналы : 1 канал
Расположение каналов : Front: C
Частота : 48,0 КГц
Битовая глубина : 24 бит
Метод сжатия : Без потерь / Lossy
Заголовок : DVO Russian, DTS-HD MA, 1ch, 48 kHz, 1179 kbps, 24-bit, (Двухголосый - Карусель)
Язык : Russian
Default : Нет
Forced : Нет
Аудио #4
Идентификатор : 5
Формат : AC-3
Формат/Информация : Audio Coding 3
Расширение режима : CM (complete main)
Параметр Endianness формата : Big
Идентификатор кодека : A_AC3
Продолжительность : 1 ч. 23 м.
Вид битрейта : Постоянный
Битрейт : 192 Кбит/сек
Каналы : 2 канала
Расположение каналов : Front: L R
Частота : 48,0 КГц
Битовая глубина : 16 бит
Метод сжатия : С потерями
Размер потока : 115 Мбайт (1%)
Заголовок : DVO Russian, AC3, 2ch, 48 kHz, 192 kbps, (Двухголосый - НТВ)
Язык : Russian
Default : Нет
Forced : Нет
Аудио #5
Идентификатор : 6
Формат : DTS
Формат/Информация : Digital Theater Systems
Профиль формата : MA / Core
Режим : 16
Параметр Endianness формата : Big
Идентификатор кодека : A_DTS
Продолжительность : 1 ч. 23 м.
Вид битрейта : Переменный
Битрейт : Неизвестно / 768 Кбит/сек
Каналы : 1 канал
Расположение каналов : Front: C
Частота : 48,0 КГц
Битовая глубина : 24 бит
Метод сжатия : Без потерь / Lossy
Заголовок : AVO Russian, DTS-HD MA, 1ch, 48 kHz, 1059 kbps, 24-bit, (Одноголосый - Гаврилов)
Язык : Russian
Default : Нет
Forced : Нет
Аудио #6
Идентификатор : 7
Формат : AC-3
Формат/Информация : Audio Coding 3
Расширение режима : CM (complete main)
Параметр Endianness формата : Big
Идентификатор кодека : A_AC3
Продолжительность : 1 ч. 23 м.
Вид битрейта : Постоянный
Битрейт : 192 Кбит/сек
Каналы : 2 канала
Расположение каналов : Front: L R
Частота : 48,0 КГц
Битовая глубина : 16 бит
Метод сжатия : С потерями
Размер потока : 115 Мбайт (1%)
Заголовок : AVO Russian, AC3, 2ch, 48 kHz, 192 kbps, (Одноголосый - Володарский)
Язык : Russian
Default : Нет
Forced : Нет
Аудио #7
Идентификатор : 8
Формат : AC-3
Формат/Информация : Audio Coding 3
Расширение режима : CM (complete main)
Параметр Endianness формата : Big
Идентификатор кодека : A_AC3
Продолжительность : 1 ч. 23 м.
Вид битрейта : Постоянный
Битрейт : 192 Кбит/сек
Каналы : 1 канал
Расположение каналов : Front: C
Частота : 48,0 КГц
Битовая глубина : 16 бит
Метод сжатия : С потерями
Размер потока : 115 Мбайт (1%)
Заголовок : AVO Russian, AC3, 1ch, 48 kHz, 192 kbps, (Одноголосый - Wizard)
Язык : Russian
Default : Нет
Forced : Нет
Аудио #8
Идентификатор : 9
Формат : AC-3
Формат/Информация : Audio Coding 3
Расширение режима : CM (complete main)
Параметр Endianness формата : Big
Идентификатор кодека : A_AC3
Продолжительность : 1 ч. 23 м.
Вид битрейта : Постоянный
Битрейт : 192 Кбит/сек
Каналы : 2 канала
Расположение каналов : Front: L R
Частота : 48,0 КГц
Битовая глубина : 16 бит
Метод сжатия : С потерями
Размер потока : 115 Мбайт (1%)
Заголовок : MVO Ukranian, AC3, 2ch, 48 kHz, 192 kbps, (Многоголосый - 1+1)
Язык : Ukrainian
Default : Нет
Forced : Нет
Аудио #9
Идентификатор : 10
Формат : DTS
Формат/Информация : Digital Theater Systems
Профиль формата : MA / Core
Режим : 16
Параметр Endianness формата : Big
Идентификатор кодека : A_DTS
Продолжительность : 1 ч. 23 м.
Вид битрейта : Переменный
Битрейт : Неизвестно / 768 Кбит/сек
Каналы : 1 канал
Расположение каналов : Front: C
Частота : 48,0 КГц
Битовая глубина : 24 бит
Метод сжатия : Без потерь / Lossy
Заголовок : English, DTS-HD MA, 1ch, 48 kHz, 1052 kbps, 24-bit, (Оригинал)
Язык : English
Default : Нет
Forced : Нет
Текст
Идентификатор : 11
Формат : PGS
Режим смешивания : zlib
Идентификатор кодека : S_HDMV/PGS
Идентификатор кодека/Информация : The same subtitle format used on BDs/HD-DVDs
Язык : English
Default : Нет
Forced : Нет
Меню
00:00:00.000 : en:
00:04:27.892 : en:
00:06:34.727 : en:
00:11:29.605 : en:
00:14:56.645 : en:
00:18:09.963 : en:
00:20:14.713 : en:
00:22:20.964 : en:
00:24:48.445 : en:
00:29:41.779 : en:
00:32:51.594 : en:
00:36:16.048 : en:
00:39:49.011 : en:
00:43:02.663 : en:
00:46:45.552 : en:
00:50:02.082 : en:
00:54:15.085 : en:
00:56:26.925 : en:
01:04:36.664 : en:
01:08:44.203 : en:
01:15:37.658 : en:
01:20:52.222 : en:
01:23:50.025 : en:
Скриншоты:
Полицейская академия 7: Миссия в Москве / Police Academy: Mission to Moscow (1994) BDRemux
Полицейская академия 7: Миссия в Москве / Police Academy: Mission to Moscow (1994) BDRemux- Год выпуска: 1994
Производство: США
Жанр: Комедия, Боевик, Криминал
Перевoд: Профессиональный (многоголосый, закадровый), Профессиональный (двухголосый, закадровый)x2, Авторский (одноголосый закадровый)x4
Оригинальная аудио дорожка: Английская
Язык субтитров: Русский, Английский
Вид субтитров: Вшитые
Режиссeр: Алан Меттер
В рoлях: Джордж Гейнс, Майкл Уинслоу, Дэвид Граф, Лесли Истербрук, Дж. У. Бейли, Кристофер Ли, Рон Перлман, Клэр Форлани, Чарли Шлэттер, Ричард Израэль
Описаниe: Полицейская академия в Москве! Русский балет. Русская водка. И русская мафия. Самая опасная операция в жизни полицейских академиков! Смогут ли они вернуться живыми?..

Продолжительнoсть: 01:22:41
Качество: BDRemux
Формат: MKV
Видео: MPEG-4 AVC, 1920x1080(16:9), 23,976fps, ~27931 Кbps
Аудио 1: MVO Russian, AC3, 5ch, 48 kHz, 384 kbps, (Многоголосый - Lazer Video)
Аудио 2: DVO Russian, DTS-HD MA, 2ch, 48 kHz, 2044 kbps, 24-bit, , (Двухголосый - Карусель)
Аудио 3: DVO Russian, AC3, 2ch, 48 kHz, 192 kbps, (Двухголосый - НТВ/ОРТ/Россия)
Аудио 4: AVO Russian, DTS-HD MA, 2ch, 48 kHz, 2023 kbps, 24-bit, (Одноголосый - Гранкин)
Аудио 5: AVO Russian, AC3, 2ch, 48 kHz, 192 kbps, (Одноголосый - Гаврилов)
Аудио 6: AVO Russian, AC3, 1ch, 48 kHz, 192 kbps, (Одноголосый - Пронин)
Аудио 7: AVO Russian, AC3, 2ch, 48 kHz, 192 kbps, (Одноголосый - Wizard)
Аудио 8: MVO Ukranian, AC3, 2ch, 48 kHz, 192 kbps, (Многоголосый - 1+1)
Аудио 9: English, DTS-HD MA, 2ch, 48 kHz, 2002 kbps, 24-bit, (Оригинал)
MediaInfo
Общее
Полное имя : Полицейская академия 7 (1994) BDRemux 1080p.mkv
Формат : Matroska
Версия формата : Version 4 / Version 2
Размер файла : 20,4 Гбайт
Продолжительность : 1 ч. 22 м.
Режим общего битрейта : Переменный
Общий поток : 35,4 Мбит/сек
Название фильма : Полицейская академия 6: Город в осаде / Police Academy 6: City Under Siege (1989) BDRemux 1080p (Sinteros)
Программа кодирования : mkvmerge v6.6.0 ('The Edge Of The In Between') built on Dec 1 2013 17:55:00
Библиотека кодирования : libebml v1.3.0 + libmatroska v1.4.1
Attachment : Yes
Видео
Идентификатор : 1
Формат : AVC
Формат/Информация : Advanced Video Codec
Профиль формата : High@L4.1
Параметр CABAC формата : Да
Параметр ReFrames формата : 2 кадра
Идентификатор кодека : V_MPEG4/ISO/AVC
Продолжительность : 1 ч. 22 м.
Вид битрейта : Переменный
Ширина : 1920 пикселей
Высота : 1080 пикселей
Соотношение сторон : 16:9
Режим частоты кадров : Постоянный
Частота кадров : 23,976 кадра/сек
Цветовое пространство : YUV
Субдискретизация насыщенности : 4:2:0
Битовая глубина : 8 бит
Тип развёртки : Прогрессивная
Заголовок : MPEG-4 AVC, 1920x1080(16:9), 23,976fps, ~27931 Кbps
Язык : English
Default : Да
Forced : Нет
Аудио #1
Идентификатор : 2
Формат : AC-3
Формат/Информация : Audio Coding 3
Расширение режима : CM (complete main)
Параметр Endianness формата : Big
Идентификатор кодека : A_AC3
Продолжительность : 1 ч. 22 м.
Вид битрейта : Постоянный
Битрейт : 384 Кбит/сек
Каналы : 5 каналов
Расположение каналов : Front: L C R, Side: L R
Частота : 48,0 КГц
Битовая глубина : 16 бит
Метод сжатия : С потерями
Размер потока : 227 Мбайт (1%)
Заголовок : MVO Russian, AC3, 5ch, 48 kHz, 384 kbps, (Многоголосый - Lazer Video)
Язык : Russian
Default : Нет
Forced : Нет
Аудио #2
Идентификатор : 3
Формат : DTS
Формат/Информация : Digital Theater Systems
Профиль формата : MA / Core
Режим : 16
Параметр Endianness формата : Big
Идентификатор кодека : A_DTS
Продолжительность : 1 ч. 22 м.
Вид битрейта : Переменный
Битрейт : Неизвестно / 1509 Кбит/сек
Каналы : 2 канала
Расположение каналов : Front: L R
Частота : 48,0 КГц
Битовая глубина : 24 бит
Метод сжатия : Без потерь / Lossy
Заголовок : DVO Russian, DTS-HD MA, 2ch, 48 kHz, 2044 kbps, 24-bit, (Двухголосый - Карусель)
Язык : Russian
Default : Нет
Forced : Нет
Аудио #3
Идентификатор : 4
Формат : AC-3
Формат/Информация : Audio Coding 3
Расширение режима : CM (complete main)
Параметр Endianness формата : Big
Идентификатор кодека : A_AC3
Продолжительность : 1 ч. 22 м.
Вид битрейта : Постоянный
Битрейт : 192 Кбит/сек
Каналы : 2 канала
Расположение каналов : Front: L R
Частота : 48,0 КГц
Битовая глубина : 16 бит
Метод сжатия : С потерями
Размер потока : 114 Мбайт (1%)
Заголовок : DVO Russian, AC3, 2ch, 48 kHz, 192 kbps, (Двухголосый - НТВ/ОРТ/Россия)
Язык : Russian
Default : Нет
Forced : Нет
Аудио #4
Идентификатор : 5
Формат : DTS
Формат/Информация : Digital Theater Systems
Профиль формата : MA / Core
Режим : 16
Параметр Endianness формата : Big
Идентификатор кодека : A_DTS
Продолжительность : 1 ч. 22 м.
Вид битрейта : Переменный
Битрейт : Неизвестно / 1509 Кбит/сек
Каналы : 2 канала
Расположение каналов : Front: L R
Частота : 48,0 КГц
Битовая глубина : 24 бит
Метод сжатия : Без потерь / Lossy
Заголовок : AVO Russian, DTS-HD MA, 2ch, 48 kHz, 2023 kbps, 24-bit, (Одноголосый - Гранкин)
Язык : Russian
Default : Нет
Forced : Нет
Аудио #5
Идентификатор : 6
Формат : AC-3
Формат/Информация : Audio Coding 3
Расширение режима : CM (complete main)
Параметр Endianness формата : Big
Идентификатор кодека : A_AC3
Продолжительность : 1 ч. 22 м.
Вид битрейта : Постоянный
Битрейт : 192 Кбит/сек
Каналы : 2 канала
Расположение каналов : Front: L R
Частота : 48,0 КГц
Битовая глубина : 16 бит
Метод сжатия : С потерями
Размер потока : 114 Мбайт (1%)
Заголовок : AVO Russian, AC3, 2ch, 48 kHz, 192 kbps, (Одноголосый - Гаврилов)
Язык : Russian
Default : Нет
Forced : Нет
Аудио #6
Идентификатор : 7
Формат : AC-3
Формат/Информация : Audio Coding 3
Расширение режима : CM (complete main)
Параметр Endianness формата : Big
Идентификатор кодека : A_AC3
Продолжительность : 1 ч. 22 м.
Вид битрейта : Постоянный
Битрейт : 192 Кбит/сек
Каналы : 1 канал
Расположение каналов : Front: C
Частота : 48,0 КГц
Битовая глубина : 16 бит
Метод сжатия : С потерями
Размер потока : 114 Мбайт (1%)
Заголовок : AVO Russian, AC3, 1ch, 48 kHz, 192 kbps, (Одноголосый - Пронин)
Язык : Russian
Default : Нет
Forced : Нет
Аудио #7
Идентификатор : 8
Формат : AC-3
Формат/Информация : Audio Coding 3
Расширение режима : CM (complete main)
Параметр Endianness формата : Big
Идентификатор кодека : A_AC3
Продолжительность : 1 ч. 22 м.
Вид битрейта : Постоянный
Битрейт : 192 Кбит/сек
Каналы : 2 канала
Расположение каналов : Front: L R
Частота : 48,0 КГц
Битовая глубина : 16 бит
Метод сжатия : С потерями
Размер потока : 114 Мбайт (1%)
Заголовок : AVO Russian, AC3, 2ch, 48 kHz, 192 kbps, (Одноголосый - Wizard)
Язык : Russian
Default : Нет
Forced : Нет
Аудио #8
Идентификатор : 9
Формат : AC-3
Формат/Информация : Audio Coding 3
Расширение режима : CM (complete main)
Параметр Endianness формата : Big
Идентификатор кодека : A_AC3
Продолжительность : 1 ч. 22 м.
Вид битрейта : Постоянный
Битрейт : 192 Кбит/сек
Каналы : 2 канала
Расположение каналов : Front: L R
Частота : 48,0 КГц
Битовая глубина : 16 бит
Метод сжатия : С потерями
Размер потока : 114 Мбайт (1%)
Заголовок : MVO Ukranian, AC3, 2ch, 48 kHz, 192 kbps, (Многоголосый - 1+1)
Язык : Ukrainian
Default : Нет
Forced : Нет
Аудио #9
Идентификатор : 10
Формат : DTS
Формат/Информация : Digital Theater Systems
Профиль формата : MA / Core
Режим : 16
Параметр Endianness формата : Big
Идентификатор кодека : A_DTS
Продолжительность : 1 ч. 22 м.
Вид битрейта : Переменный
Битрейт : Неизвестно / 1509 Кбит/сек
Каналы : 2 канала
Расположение каналов : Front: L R
Частота : 48,0 КГц
Битовая глубина : 24 бит
Метод сжатия : Без потерь / Lossy
Заголовок : English, DTS-HD MA, 2ch, 48 kHz, 2002 kbps, 24-bit, (Оригинал)
Язык : English
Default : Нет
Forced : Нет
Текст #1
Идентификатор : 11
Формат : PGS
Режим смешивания : zlib
Идентификатор кодека : S_HDMV/PGS
Идентификатор кодека/Информация : The same subtitle format used on BDs/HD-DVDs
Язык : Russian
Default : Нет
Forced : Нет
Текст #2
Идентификатор : 12
Формат : PGS
Режим смешивания : zlib
Идентификатор кодека : S_HDMV/PGS
Идентификатор кодека/Информация : The same subtitle format used on BDs/HD-DVDs
Язык : English
Default : Нет
Forced : Нет
Меню
00:00:00.000 : en:
00:06:48.241 : en:
00:09:49.547 : en:
00:12:20.114 : en:
00:13:24.512 : en:
00:15:25.382 : en:
00:17:47.775 : en:
00:20:26.558 : en:
00:23:52.180 : en:
00:28:12.732 : en:
00:30:30.203 : en:
00:33:31.426 : en:
00:35:35.007 : en:
00:40:36.934 : en:
00:41:28.277 : en:
00:49:23.001 : en:
00:57:03.670 : en:
01:02:05.972 : en:
01:06:39.620 : en:
01:10:12.458 : en:
01:13:58.392 : en:
01:17:58.298 : en:
01:22:36.284 : en:
Скриншоты:
-
[Профиль] [ЛС]
Показать сообщения:    
Ответить на тему

Текущее время: 27-Май 13:05

Часовой пояс: UTC + 3



Вы не можете начинать темы
Вы не можете отвечать на сообщения
Вы не можете редактировать свои сообщения
Вы не можете удалять свои сообщения
Вы не можете голосовать в опросах
Вы не можете прикреплять файлы к сообщениям
Вы не можете скачивать файлы