Сегодня идет свободное скачивание без начисления Download

Любовь без правил (2016) WEB-DL 1080p | iTunes

Ответить на тему
Статистика раздачи
Размер:  3,1 GB   |    Зарегистрирован:  10 месяцев 22 дня   |    Скачан:  0 раз
Сидов:  153  [  0 KB/s  ]   Личеров:  125  [  0 KB/s  ]   Подробная статистика пиров
 
   
 
 
Автор Сообщение

Bot ®

Стаж: 5 лет 6 месяцев

Сообщений: 32590

Откуда: СССР

Создавать темы 26-Дек-2016 07:41

[Цитировать]

Информация о фильме
Название: Любовь без правил
Оригинальное название: Любовь без правил
Год выхода: 2016
Жанр: комедия
Режиссер: Дмитрий Астрахан
В ролях: Виктор Васильев, Анна Горшкова, Олег Васильков, Ирина Погодина, Анна Назарова, Иван Щетко, Софья Синицына, Наталья Барановская, Людмила Баталова, Георгий Малявский
О фильме: В городе Зареченске жены часто отказывали мужьям. Когда же проблема накрыла и мэра города, Сергей Николаевич не стал терпеть и начал действовать. С родственником жены, местным олигархом, они решают перепрофилировать построенный на противоположном берегу реки санаторий в «Оздоровительный центр». Для чего бизнесмен приглашает из столицы специально обученный «медицинский персонал». И вот уже на другую сторону реки пришвартовывается катер с симпатичными, молодыми и очень профессиональными «медсестрами» и «санитарками». Вооружившись биноклями зареченские жены придирчиво рассматривают конкуренток. А что-же мужья? Надев парадные костюмы и галстуки они садятся в лодки и через несколько минут оказываются на другом берегу, среди молодых, красивых, покладистых и совсем не стервозных девушек. Другие правила или наоборот, любовь без правил?

Выпущено: Россия
Продолжительность: 01:30:02
Озвучивание: Оригинальное [iTunes]
Файл
Формат: MKV
Качество: WEB-DL 1080p
Видео: MPEG-4 AVC, 4452 kb/s, 1920x802
Аудио: AC3, 384 kb/s (2 ch)
MI
Format : Matroska
Format version : Version 2
File size : 3.10 GiB
Duration : 1 h 30 min
Overall bit rate : 4 934 kb/s
Encoded date : UTC 2016-12-25 21:19:38
Writing application : mkvmerge v8.3.0 ('Over the Horizon') 64bit
Writing library : libebml v1.3.1 + libmatroska v1.4.2
Video
ID : 1
Format : AVC
Format/Info : Advanced Video Codec
Format profile : High@L4
Format settings, CABAC : Yes
Format settings, ReFrames : 5 frames
Codec ID : V_MPEG4/ISO/AVC
Duration : 1 h 30 min
Bit rate : 4 452 kb/s
Width : 1 920 pixels
Height : 802 pixels
Display aspect ratio : 2.40:1
Frame rate mode : Constant
Frame rate : 25.000 FPS
Color space : YUV
Chroma subsampling : 4:2:0
Bit depth : 8 bits
Scan type : Progressive
Bits/(Pixel*Frame) : 0.116
Stream size : 2.80 GiB (90%)
Language : English
Default : Yes
Forced : No
Color range : Limited
Color primaries : BT.709
Transfer characteristics : BT.709
Matrix coefficients : BT.709
Audio
ID : 2
Format : AC-3
Format/Info : Audio Coding 3
Mode extension : CM (complete main)
Format settings, Endianness : Big
Codec ID : A_AC3
Duration : 1 h 30 min
Bit rate mode : Constant
Bit rate : 384 kb/s
Channel(s) : 2 channels
Channel positions : Front: L R
Sampling rate : 48.0 kHz
Frame rate : 31.250 FPS (1536 spf)
Compression mode : Lossy
Stream size : 247 MiB (8%)
Language : Russian
Default : Yes
Forced : No
Menu
00:00:00.000 : en:Глава 1
00:06:32.680 : en:Глава 2
00:13:28.280 : en:Глава 3
00:20:55.240 : en:Глава 4
00:29:03.960 : en:Глава 5
00:36:43.040 : en:Глава 6
00:45:01.000 : en:Глава 7
00:52:50.480 : en:Глава 8
01:01:55.960 : en:Глава 9
01:10:54.120 : en:Глава 10
01:19:16.720 : en:Глава 11
Скриншоты


[realmt.org].t812496.torrent 
Торрент: Зарегистрирован [ 2016-12-26 07:41 ] · F16F963B24FEA05E5ADD30AAAA9FAF1D4A6CAF04

Скачать .torrent

Скачать

32 KB

Статус: проверено
Скачан: 0 раз
Размер: 3,1 GB
Оценка:  - (Голосов: 0)
Поблагодарили: 1  Спасибо   (список)
terms.php
Похожие темы
[Профиль] [ЛС]
Быстрый ответ

Имя:

      
Для отправки сообщений необходимо включить JavaScript
Показать сообщения:    
Ответить на тему

Текущее время: 17-Ноя 20:40

Часовой пояс: UTC + 3



Вы можете начинать темы
Вы можете отвечать на сообщения
Вы не можете редактировать свои сообщения
Вы не можете удалять свои сообщения
Вы не можете голосовать в опросах
Вы не можете прикреплять файлы к сообщениям
Вы можете скачивать файлы