Сегодня идет свободное скачивание без начисления Download

28 панфиловцев (2016) WEB-DLRip [H.264]

Ответить на тему
Статистика раздачи
Размер:  1,45 GB   |    Зарегистрирован:  2 месяца   |    Скачан:  0 раз
Сидов:  238  [  0 KB/s  ]   Личеров:  70  [  0 KB/s  ]   Подробная статистика пиров
 
   
 
 
Автор Сообщение

Bot ®

Стаж: 2 года 8 месяцев

Сообщений: 2515

Создавать темы 26-Дек-2016 09:39

[Цитировать]

28 панфиловцев (2016) WEB-DLRip [H.264] - Производство: Россия / 28 панфиловцев, Libyan Palette Studios
Жанр: военный, драма
Режиссер: Ким Дружинин, Андрей Шальопа
Актеры: Александр Устюгов, Яков Кучеревский, Азамат Нигманов, Олег Фёдоров, Алексей Морозов, Антон Кузнецов, Алексей Лонгин, Максим Белбородов, Дмитрий Мурашев, Виталий Коваленко
Описание:
Осенью 1941-го года немецкие части, стоявшие возле Волоколамска, отделяло от Москвы каких-нибудь два часа по шоссе. Однако, на этом шоссе стояла 316-я стрелковая дивизия под командованием генерала И. В. Панфилова. Этот военачальник обладал настолько высоким авторитетом среди личного состава, что бойцы дивизии сами называли себя панфиловцами. А дивизию — панфиловской.

Дата мировой премьеры: 16 декабря 2016
Дата российской премьеры: 24 ноября 2016, «UPI»
Дата выхода Blu-Ray и DVD релиза: 26 января 2017, «НД Плэй»
Продолжительность: 02:00:37
Качество видео: WEB-DLRip [H.264]
Перевод: Не требуется (русский) iTunes
Видео: AVC/H.264, 960x402 (2.40:1), ~1307 kbps
Аудио: AC3, 6 ch, 384 kbps
Mediainfo:
Код: выделить всеОбщее
Уникальный идентификатор                 : 187220826994447528802110994055929782681 (0x8CD96B70F1EF86AF94D5EDF27C27E199)
Полное имя                               : F:\28.panfilovcev.2016.WEB-DLRip.x264.NNM-CLUB.mkv
Формат                                   : Matroska
Версия формата                           : Version 4 / Version 2
Размер файла                             : 1,45 Гбайт
Продолжительность                        : 2 ч. 0 м.
Общий поток                              : 1726 Кбит/сек
Название фильма                          : 28 панфиловцев (2016) :: AFM ::
Дата кодирования                         : UTC 2016-12-25 23:01:17
Программа кодирования                    : mkvmerge v8.3.0 ('Over the Horizon') 32bit
Библиотека кодирования                   : libebml v1.3.1 + libmatroska v1.4.2
Видео
Идентификатор                            : 1
Формат                                   : AVC
Формат/Информация                        : Advanced Video Codec
Профиль формата                          : High@L4.1
Параметр CABAC формата                   : Да
Параметр ReFrames формата                : 10 кадров
Идентификатор кодека                     : V_MPEG4/ISO/AVC
Продолжительность                        : 2 ч. 0 м.
Битрейт                                  : 1307 Кбит/сек
Ширина                                   : 960 пикселей
Высота                                   : 402 пикселя
Соотношение сторон                       : 2,40:1
Режим частоты кадров                     : Постоянный
Частота кадров                           : 24,000 кадра/сек
Цветовое пространство                    : YUV
Субдискретизация насыщенности            : 4:2:0
Битовая глубина                          : 8 бит
Тип развёртки                            : Прогрессивная
Бит/(Пиксели*Кадры)                      : 0.141
Размер потока                            : 1,10 Гбайт (76%)
Заголовок                                : WEB-DLRip by AFM
Библиотека кодирования                   : x264 core 148 r2744+55 950084e t_mod_Custom [8-bit@all X86_64]
Настройки программы                      : cabac=1 / ref=10 / deblock=1:-2:-2 / analyse=0x3:0x113 / me=umh / subme=10 / psy=1 / fade_compensate=0.00 / psy_rd=1.00:0.00 / mixed_ref=1 / me_range=32 / chroma_me=1 / trellis=2 / 8x8dct=1 / cqm=0 / deadzone=21,11 / fast_pskip=0 / chroma_qp_offset=-2 / threads=6 / lookahead_threads=1 / sliced_threads=0 / nr=0 / decimate=1 / interlaced=0 / bluray_compat=0 / constrained_intra=0 / fgo=0 / bframes=10 / b_pyramid=2 / b_adapt=2 / b_bias=0 / direct=1 / weightb=1 / open_gop=0 / weightp=2 / keyint=240 / keyint_min=23 / scenecut=40 / intra_refresh=0 / rc_lookahead=40 / rc=crf / mbtree=0 / crf=19.1500 / qcomp=0.65 / qpmin=0:0:0 / qpmax=69:69:69 / qpstep=4 / vbv_maxrate=50000 / vbv_bufsize=62500 / crf_max=0.0 / nal_hrd=none / filler=0 / ip_ratio=1.35 / pb_ratio=1.30 / aq=3:0.80 / aq-sensitivity=10.00 / aq-factor=1.00:1.00:1.00 / aq2=0 / aq3=0 / zones=153770,173686,q=30
Язык                                     : Russian
Default                                  : Да
Forced                                   : Нет
Аудио
Идентификатор                            : 2
Формат                                   : AC-3
Формат/Информация                        : Audio Coding 3
Расширение режима                        : CM (complete main)
Параметр Endianness формата              : Big
Идентификатор кодека                     : A_AC3
Продолжительность                        : 2 ч. 0 м.
Вид битрейта                             : Постоянный
Битрейт                                  : 384 Кбит/сек
Каналы                                   : 6 каналов
Расположение каналов                     : Front: L C R, Side: L R, LFE
Частота                                  : 48,0 КГц
Частота кадров                           : 31,250 кадров/сек (1536 spf)
Метод сжатия                             : С потерями
Размер потока                            : 331 Мбайт (22%)
Заголовок                                : AC3 5.1 ~384 kbps (iTunes)
Язык                                     : Russian
Default                                  : Да
Forced                                   : Нет
Меню
00:00:00.000                             : en:Глава 1
00:06:28.666                             : en:Глава 2
00:13:30.207                             : en:Глава 3
00:20:32.207                             : en:Глава 4
00:27:03.957                             : en:Глава 5
00:33:34.290                             : en:Глава 6
00:40:40.415                             : en:Глава 7
00:48:05.248                             : en:Глава 8
00:55:16.373                             : en:Глава 9
01:02:22.998                             : en:Глава 10
01:10:09.039                             : en:Глава 11
01:18:04.164                             : en:Глава 12
01:25:17.997                             : en:Глава 13
01:32:36.997                             : en:Глава 14
01:40:55.830                             : en:Глава 15
Скриншоты:
[realmt.org].t812592.torrent 
Торрент: Зарегистрирован [ 2016-12-26 09:39 ] · 0E9530826BFEDB6335FE44B727DEB171CA5AC493

Скачать .torrent

Скачать

15 KB

Статус: проверено
Скачан: 0 раз
Размер: 1,45 GB
Оценка:  - (Голосов: 0)
Поблагодарили: 1  Спасибо   (список)
terms.php
Похожие темы
[Профиль] [ЛС]
Быстрый ответ

Имя:

      
Для отправки сообщений необходимо включить JavaScript
Показать сообщения:    
Ответить на тему

Текущее время: 26-Фев 10:43

Часовой пояс: UTC + 3



Вы можете начинать темы
Вы можете отвечать на сообщения
Вы не можете редактировать свои сообщения
Вы не можете удалять свои сообщения
Вы не можете голосовать в опросах
Вы не можете прикреплять файлы к сообщениям
Вы можете скачивать файлы