Сегодня идет свободное скачивание без начисления Download

Восставший / Risen (2016) BDRemux 1080p | Лицензия

Ответить на тему
 
Автор Сообщение

Bot ®

Стаж: 4 года 11 месяцев

Сообщений: 28153

Откуда: СССР

Создавать темы 27-Дек-2016 17:01

[Цитировать]

Информация о фильме
Название: Восставший
Оригинальное название: Risen
Год выхода: 2016
Жанр: Боевик, драма, детектив, приключения
Режиссер: Кевин Рейнольдс
В ролях: Джозеф Файнс, Том Фелтон, Питер Фёрт, Клифф Кёртис, Мария Ботто, Луис Кальехо, Антонио Хиль-Мартинес, Ричард Этуилл, Марк Киллин, Стюарт Скудамор
О фильме:
В картине пойдет речь о первых 40 днях, последовавших вслед за воскресением Христа. Основным персонажем станет атеистически настроенный римский центурион, которого прокуратор Иудеи, Понтий Пилат, посылает разузнать с чем связаны слухи о воскресении Христа, а также попытаться отыскать тело этого новоявленного мессии.

Страна: США
Студия: Liddell Entertainment, Affirm Films, Columbia Pictures, Patrick Aiello Productions
Продолжительность: 01:47:38
Перевод: Профессиональный многоголосый (закадровый) | Лицензия
Файл
Качество: BDRemux 1080p
Видео: MPEG-4 AVC, 1920x1080, 24.9 Mbit/s, 23.976 fps
Звук:
Аудио #01: 48 kHz, AC3, 5.1, 640 Kbps | Профессиональный многоголосый (закадровый) |
Аудио #02: 48 kHz, DTS-HD MA, 5.1, 2148 kbps | Оригинал |
Субтитры: Русские, английские
MI
General
Unique ID : 229180685818815497078323800001566564028 (0xAC6A98346322C929AC92798B1BBD5EBC)
Complete name : F:VideoRisen.2016.D.BDREMUX.1080p.ExKinoRay.mkv
Format : Matroska
Format version : Version 4 / Version 2
File size : 20.8 GiB
Duration : 1 h 47 min
Overall bit rate mode : Variable
Overall bit rate : 27.7 Mb/s
Movie name : Risen.2016 ***селезень***
Encoded date : UTC 2016-12-26 19:52:22
Writing application : mkvmerge v8.3.0 ('Over the Horizon') 64bit
Writing library : libebml v1.3.1 + libmatroska v1.4.2
Video
ID : 1
Format : AVC
Format/Info : Advanced Video Codec
Format profile : High@L4.1
Format settings, CABAC : Yes
Format settings, ReFrames : 2 frames
Format settings, GOP : M=1, N=10
Codec ID : V_MPEG4/ISO/AVC
Duration : 1 h 47 min
Bit rate mode : Variable
Bit rate : 24.9 Mb/s
Width : 1 920 pixels
Height : 1 080 pixels
Display aspect ratio : 16:9
Frame rate mode : Constant
Frame rate : 23.976 (24000/1001) FPS
Color space : YUV
Chroma subsampling : 4:2:0
Bit depth : 8 bits
Scan type : Progressive
Bits/(Pixel*Frame) : 0.502
Stream size : 18.7 GiB (90%)
Title : Risen.2016 ***селезень***
Default : Yes
Forced : No
Audio #1
ID : 2
Format : AC-3
Format/Info : Audio Coding 3
Mode extension : CM (complete main)
Format settings, Endianness : Big
Codec ID : A_AC3
Duration : 1 h 47 min
Bit rate mode : Constant
Bit rate : 640 kb/s
Channel(s) : 6 channels
Channel positions : Front: L C R, Side: L R, LFE
Sampling rate : 48.0 kHz
Frame rate : 31.250 FPS (1536 spf)
Bit depth : 16 bits
Compression mode : Lossy
Delay relative to video : -8 ms
Stream size : 493 MiB (2%)
Title : Dub [License]
Language : Russian
Default : Yes
Forced : No
Audio #2
ID : 3
Format : DTS
Format/Info : Digital Theater Systems
Format profile : MA / Core
Mode : 16
Format settings, Endianness : Big
Codec ID : A_DTS
Duration : 1 h 47 min
Bit rate mode : Variable / Constant
Bit rate : 2 148 kb/s / 1 509 kb/s
Channel(s) : 6 channels
Channel positions : Front: L C R, Side: L R, LFE
Sampling rate : 48.0 kHz
Frame rate : 93.750 FPS (512 spf)
Bit depth : 16 bits
Compression mode : Lossless / Lossy
Stream size : 1.62 GiB (8%)
Title : Original
Language : English
Default : No
Forced : No
Text #1
ID : 4
Format : UTF-8
Codec ID : S_TEXT/UTF8
Codec ID/Info : UTF-8 Plain Text
Duration : 1 h 38 min
Bit rate : 61 b/s
Count of elements : 902
Stream size : 44.5 KiB (0%)
Title : Full
Language : Russian
Default : No
Forced : No
Text #2
ID : 5
Format : UTF-8
Codec ID : S_TEXT/UTF8
Codec ID/Info : UTF-8 Plain Text
Duration : 1 h 36 min
Bit rate : 37 b/s
Count of elements : 989
Stream size : 26.5 KiB (0%)
Title : Full
Language : English
Default : No
Forced : No
Text #3
ID : 6
Format : UTF-8
Codec ID : S_TEXT/UTF8
Codec ID/Info : UTF-8 Plain Text
Duration : 1 h 38 min
Bit rate : 44 b/s
Count of elements : 1238
Stream size : 31.8 KiB (0%)
Title : SDH
Language : English
Default : No
Forced : No
Menu
00:00:00.000 : en:Chapter 1
00:06:50.243 : en:Chapter 2
00:14:18.732 : en:Chapter 3
00:21:48.181 : en:Chapter 4
00:27:35.195 : en:Chapter 5
00:33:21.082 : en:Chapter 6
00:40:03.984 : en:Chapter 7
00:46:19.193 : en:Chapter 8
00:54:06.243 : en:Chapter 9
01:00:06.477 : en:Chapter 10
01:07:53.027 : en:Chapter 11
01:13:54.847 : en:Chapter 12
01:19:46.656 : en:Chapter 13
01:25:42.387 : en:Chapter 14
01:33:16.132 : en:Chapter 15
01:38:41.832 : en:Chapter 16
[Профиль] [ЛС]
Показать сообщения:    
Ответить на тему

Текущее время: 28-Апр 17:13

Часовой пояс: UTC + 3



Вы не можете начинать темы
Вы не можете отвечать на сообщения
Вы не можете редактировать свои сообщения
Вы не можете удалять свои сообщения
Вы не можете голосовать в опросах
Вы не можете прикреплять файлы к сообщениям
Вы не можете скачивать файлы