Кабинет / Parlor (2015) BDRemux [H.264/1080p]

Ответить на тему
 
Автор Сообщение

Bot ®

Стаж: 1 год 1 месяц

Сообщений: 2311

Создавать темы 28-Дек-2016 16:49

[Цитировать]

Кабинет / Parlor (2015) BDRemux [H.264/1080p]- Производство: Канада, Black Fawn Films, Breakthrough Entertainment
Жанр: Ужасы
Режиссер: Девон Даунс
Актеры: ЛаСардо, Джорда Джеймс Смит, Сара Фабель, Антоний Дель Негро, Клэр Гарви, Тиффани ДеМарко, Джоуи Фишер, Бен Уаллен, Бет Хампрейс, Эндрю Пагана, Ник Колдман, Габия Урнижуте, Грэйс Финлан, Индри Пивораите
Описание:
Шестеро студентов колледжа отправляются на каникулы в Восточную Европу, но в погоне за весельем они попадают прямиком в лапы татуировщика-садиста, для которого наколки далеко не единственный источник доходов.

Продолжительность: 01:38:46
Качество видео: BDRemux 1080р
Перевод: Двуголосый закадровый, любительский (den904 & DeadSno)
Язык субтитров: Русский, Английский
Вид субтитров: Вшитые отключаемые
Видео: AVC/H.264, 1920х1080, ~24940 Kbps
Аудио: AC3, 6 ch, 448 kbps - Русский (DVO, den904 & DeadSno)
Аудио: AC3, 6 ch, 448 kbps - Английский
Доп. информация: Внимание! В переводе и в субтитрах присутствует ненормативная лексика.
Mediainfo:
General
Unique ID : 196616901477837418227931194372464708092 (0x93EB09AE1ADBD910B1D12AEAF78609FC)
Complete name : E:\Parlor.2015.BDRemux.1080p.mkv
Format : Matroska
Format version : Version 4 / Version 2
File size : 17.8 GiB
Duration : 1h 38mn
Overall bit rate mode : Variable
Overall bit rate : 25.8 Mbps
Movie name : Parlor.2015.BDRemux.1080p
Encoded date : UTC 2016-11-16 07:27:11
Writing application : mkvmerge v9.5.0 ('Quiet Fire') 64bit
Writing library : libebml v1.3.4 + libmatroska v1.4.5
DURATION : 01:35:40.332000000
NUMBER_OF_FRAMES : 1066
NUMBER_OF_BYTES : 32337
_STATISTICS_WRITING_APP : mkvmerge v9.5.0 ('Quiet Fire') 64bit
_STATISTICS_WRITING_DATE_UTC : 2016-11-16 07:27:11
_STATISTICS_TAGS : BPS DURATION NUMBER_OF_FRAMES NUMBER_OF_BYTES
Video
ID : 1
Format : AVC
Format/Info : Advanced Video Codec
Format profile : High@L4.1
Format settings, CABAC : Yes
Format settings, ReFrames : 3 frames
Format settings, GOP : M=3, N=12
Codec ID : V_MPEG4/ISO/AVC
Duration : 1h 38mn
Bit rate mode : Variable
Bit rate : 24.4 Mbps
Maximum bit rate : 33.1 Mbps
Width : 1 920 pixels
Height : 1 080 pixels
Display aspect ratio : 16:9
Frame rate mode : Constant
Frame rate : 23.976 fps
Standard : NTSC
Color space : YUV
Chroma subsampling : 4:2:0
Bit depth : 8 bits
Scan type : Progressive
Bits/(Pixel*Frame) : 0.491
Stream size : 16.9 GiB (95%)
Title : Anarchy.Parlor.2015.BDRemux.1080p_by_vedigo
Default : Yes
Forced : No
Color range : Limited
Color primaries : BT.709
Transfer characteristics : BT.709
Matrix coefficients : BT.709
DURATION : 01:38:45.878000000
NUMBER_OF_FRAMES : 142079
NUMBER_OF_BYTES : 18472729934
_STATISTICS_WRITING_APP : mkvmerge v9.5.0 ('Quiet Fire') 64bit
_STATISTICS_WRITING_DATE_UTC : 2016-11-16 07:27:11
_STATISTICS_TAGS : BPS DURATION NUMBER_OF_FRAMES NUMBER_OF_BYTES
Audio #1
ID : 2
Format : AC-3
Format/Info : Audio Coding 3
Mode extension : CM (complete main)
Format settings, Endianness : Big
Codec ID : A_AC3
Duration : 1h 38mn
Bit rate mode : Constant
Bit rate : 448 Kbps
Channel(s) : 6 channels
Channel positions : Front: L C R, Side: L R, LFE
Sampling rate : 48.0 KHz
Compression mode : Lossy
Stream size : 316 MiB (2%)
Title : DVO @ DeadSno & Den904
Language : Russian
Default : Yes
Forced : No
Audio #2
ID : 3
Format : AC-3
Format/Info : Audio Coding 3
Mode extension : CM (complete main)
Format settings, Endianness : Big
Codec ID : A_AC3
Duration : 1h 38mn
Bit rate mode : Constant
Bit rate : 448 Kbps
Channel(s) : 6 channels
Channel positions : Front: L C R, Side: L R, LFE
Sampling rate : 48.0 KHz
Compression mode : Lossy
Stream size : 316 MiB (2%)
Title : Original
Language : English
Default : No
Forced : No
Text #1
ID : 4
Format : UTF-8
Codec ID : S_TEXT/UTF8
Codec ID/Info : UTF-8 Plain Text
Title : Subtitle rus @ Antonio
Language : Russian
Default : No
Forced : No
Text #2
ID : 5
Format : UTF-8
Codec ID : S_TEXT/UTF8
Codec ID/Info : UTF-8 Plain Text
Title : Subtitle eng [SDH]
Language : English
Default : No
Forced : No
Скриншоты:
[Профиль] [ЛС]
Показать сообщения:    
Ответить на тему

Текущее время: 18-Авг 09:53

Часовой пояс: UTC + 3



Вы не можете начинать темы
Вы не можете отвечать на сообщения
Вы не можете редактировать свои сообщения
Вы не можете удалять свои сообщения
Вы не можете голосовать в опросах
Вы не можете прикреплять файлы к сообщениям
Вы не можете скачивать файлы