Сегодня идет свободное скачивание без начисления Download

Секта / La Secta (2014) BDRemux [H.264/1080i] [VO]

Ответить на тему
 
Автор Сообщение

Bot ®

Стаж: 1 год 5 месяцев

Сообщений: 2408

Создавать темы 28-Дек-2016 16:51

[Цитировать]

Секта / La Secta (2014) BDRemux - Производство: Аргентина, Margen Cine
Жанр: Триллер
Режиссер: Эрнесто Агилар
Актеры: Патрисия Фишман, Лилиам Талеро, Фернандо Золеззи
Описание:
Молодая девушка приезжает из провинции в Буйнос-Айрес в поисках работы. Но вместо этого попадает в лапы злобных сектантов.
Продолжительность: 01:09:45
Качество видео: BDRemux
Перевод: Одноголосый закадровый, любительский (datynet)
Автор перевода: anton1
Язык субтитров: Английский
Вид субтитров: Вшитые отключаемые
Видео: AVC/H.264, 1920х1080, ~24,8 Mbps
Аудио 1: Русский, AC3, 2 ch, 192 Kbps, CBR
Аудио 2: Английский, AC3, 2 ch, 192 Kbps, CBR
Mediainfo:
Общее
Уникальный идентификатор : 248908274029909268959760801669851492879 (0xBB41FD65E449382D96A111971021B20F)
Полное имя : E:\MMMM\La.Secta.1080i.BluRay.REMUX.mkv
Формат : Matroska
Версия формата : Version 4 / Version 2
Размер файла : 12,5 Гбайт
Продолжительность : 1 ч. 9 м.
Режим общего битрейта : Переменный
Общий поток : 25,7 Мбит/сек
Дата кодирования : UTC 2016-11-16 13:09:17
Программа кодирования : mkvmerge v6.9.1 ('Blue Panther') 64bit built on Apr 18 2014 18:23:38
Библиотека кодирования : libebml v1.3.0 + libmatroska v1.4.1
Видео
Идентификатор : 1
Формат : AVC
Формат/Информация : Advanced Video Codec
Профиль формата : High@L4.1
Параметр CABAC формата : Да
Параметр ReFrames формата : 3 кадра
Параметр GOP формата : M=3, N=15
Идентификатор кодека : V_MPEG4/ISO/AVC
Продолжительность : 1 ч. 9 м.
Вид битрейта : Переменный
Битрейт : 24,8 Мбит/сек
Максимальный битрейт : 35,0 Мбит/сек
Ширина : 1920 пикселей
Высота : 1080 пикселей
Соотношение сторон : 16:9
Режим частоты кадров : Постоянный
Частота кадров : 29,970 (30000/1001) кадров/сек
Стандарт вещания : NTSC
Цветовое пространство : YUV
Субдискретизация насыщенности : 4:2:0
Битовая глубина : 8 бит
Тип развёртки : MBAFF
Бит/(Пиксели*Кадры) : 0.399
Размер потока : 12,1 Гбайт (97%)
Default : Да
Forced : Нет
Цветовой диапазон : Limited
Основные цвета : BT.709
Характеристики трансфера : BT.709
Коэффициенты матрицы : BT.709
Аудио #1
Идентификатор : 2
Формат : AC-3
Формат/Информация : Audio Coding 3
Расширение режима : CM (complete main)
Параметр Endianness формата : Big
Идентификатор кодека : A_AC3
Продолжительность : 1 ч. 9 м.
Вид битрейта : Постоянный
Битрейт : 192 Кбит/сек
Каналы : 2 канала
Расположение каналов : Front: L R
Частота : 48,0 КГц
Частота кадров : 31,250 кадров/сек (1536 spf)
Метод сжатия : С потерями
Задержка видео : -67 мс.
Размер потока : 95,8 Мбайт (1%)
Заголовок : datynet
Язык : Russian
Default : Да
Forced : Нет
Аудио #2
Идентификатор : 3
Формат : AC-3
Формат/Информация : Audio Coding 3
Расширение режима : CM (complete main)
Параметр Endianness формата : Big
Идентификатор кодека : A_AC3
Продолжительность : 1 ч. 9 м.
Вид битрейта : Постоянный
Битрейт : 192 Кбит/сек
Каналы : 2 канала
Расположение каналов : Front: L R
Частота : 48,0 КГц
Частота кадров : 31,250 кадров/сек (1536 spf)
Метод сжатия : С потерями
Размер потока : 95,8 Мбайт (1%)
Заголовок : original
Язык : Spanish
Default : Нет
Forced : Нет
Текст
Идентификатор : 4
Формат : PGS
Режим смешивания : zlib
Идентификатор кодека : S_HDMV/PGS
Идентификатор кодека/Информация : Picture based subtitle format used on BDs/HD-DVDs
Язык : English
Default : Нет
Forced : Нет
Меню
00:00:00.000 : en:Chapter 1
00:07:00.453 : en:Chapter 2
00:14:00.906 : en:Chapter 3
00:21:01.360 : en:Chapter 4
00:28:01.813 : en:Chapter 5
00:35:02.266 : en:Chapter 6
00:42:02.720 : en:Chapter 7
00:49:03.173 : en:Chapter 8
00:56:03.626 : en:Chapter 9
01:03:04.080 : en:Chapter 10
01:09:44.947 : en:Chapter 11
Скриншоты:
Дополнительные скриншоты:
[Профиль] [ЛС]
Показать сообщения:    
Ответить на тему

Текущее время: 17-Дек 18:56

Часовой пояс: UTC + 3



Вы не можете начинать темы
Вы не можете отвечать на сообщения
Вы не можете редактировать свои сообщения
Вы не можете удалять свои сообщения
Вы не можете голосовать в опросах
Вы не можете прикреплять файлы к сообщениям
Вы не можете скачивать файлы