Сегодня идет свободное скачивание без начисления Download

О, где же ты, брат? / O Brother, Where Art Thou? (2000) BDRemux [VC-1/1080p]

Ответить на тему
 
Автор Сообщение

Bot ®

Стаж: 8 месяцев 20 дней

Сообщений: 1753

Создавать темы 30-Дек-2016 17:53

[Цитировать]

О, где же ты, брат? / O Brother, Where Art Thou? (2000) BDRemux- Производство: Великобритания, Франция, США
Жанр: Комедия, Криминал, Приключения, Музыкальный
Режиссер: Джоэл Коэн, Итан Коэн
Актеры: Джордж Клуни, Джон Туртурро, Тим Блейк Нельсон, Джон Гудман, Холли Хантер, Крис Томас Кинг, Чарльз Дёрнинг, Дель Пентекост, Майкл Бадалукко, Дж. Р. Хорн
Описание:
Вольная экранизация поэмы Гомера "Одиссея".
У мошенника Эверетта МакГилла на воле срочное дело, но как убежать из тюрьмы, если ты скован одной цепью с двумя заключенными? МакГилл рассказывает своим сокамерникам историю о припрятанном миллионе долларов и о том, что скоро все это богатство окажется под водой.
Он обещает разделить награбленное на троих, и его тюремные братья соглашаются отправиться на спасение денежек. Но о том, ради чего на самом деле затеяна вся эта одиссея, знает только Эверетт.

Возраст: 0+ (для любой зрительской аудитории)
Рейтинг MPAA: PG-13 (детям до 13 лет просмотр нежелателен)
Релиз от: lexandros для NNM CLUB
Продолжительность: 01:47:09
Качество видео: BDRemux
Перевод: Дублированный, многоголосый закадровый, авторский
Язык субтитров: Русский, Английский
Вид субтитров: Вшитые, отключаемые
Видео: VC-1, 1920x1080, ~22517 kbps
Аудио 1: AC3, 6 ch, 384 kbps, CBR, Русский (DUB, R5)
Аудио 2: AC3, 2 ch, 192 kbps, CBR, Русский (MVO, ГТРК "Россия")
Аудио 3: DTS-HD MA, 6 ch, 4183 kbps, VBR, Русский (AVO, М. Чадов)
Аудио 4: DTS-HD MA, 6 ch, 4164 kbps, VBR, Русский (AVO, С. Рябов)
Аудио 5: DTS-HD MA, 6 ch, 4162 kbps, VBR, Русский (AVO, С. Визгунов)
Аудио 6: DTS-HD MA, 6 ch, 4151 kbps, VBR, Английский (оригинал)
MediaInfo:
General
Format : Matroska
Format version : Version 4 / Version 2
File size : 30.2 GiB
Duration : 1 h 47 min
Overall bit rate : 40.3 Mb/s
Movie name : O Brother, Where Art Thou? (2000). BDRemux by Lexandros
Encoded date : UTC 2016-11-03 17:40:24
Writing application : mkvmerge v9.5.0 ('Quiet Fire') 64bit
Writing library : libebml v1.3.4 + libmatroska v1.4.5
Video
ID : 1
Format : VC-1
Format profile : Advanced@L3
Codec ID : V_MS/VFW/FOURCC / WVC1
Codec ID/Hint : Microsoft
Duration : 1 h 47 min
Bit rate : 22.5 Mb/s
Width : 1 920 pixels
Height : 1 080 pixels
Display aspect ratio : 16:9
Frame rate mode : Constant
Frame rate : 23.976 (24000/1001) FPS
Color space : YUV
Chroma subsampling : 4:2:0
Bit depth : 8 bits
Scan type : Progressive
Compression mode : Lossy
Bits/(Pixel*Frame) : 0.453
Stream size : 16.9 GiB (56%)
Language : English
Default : Yes
Forced : No
Audio #1
ID : 2
Format : AC-3
Format/Info : Audio Coding 3
Mode extension : CM (complete main)
Format settings, Endianness : Big
Codec ID : A_AC3
Duration : 1 h 47 min
Bit rate mode : Constant
Bit rate : 384 kb/s
Channel(s) : 6 channels
Channel positions : Front: L C R, Side: L R, LFE
Sampling rate : 48.0 kHz
Frame rate : 31.250 FPS (1536 spf)
Bit depth : 16 bits
Compression mode : Lossy
Delay relative to video : 42 ms
Stream size : 294 MiB (1%)
Title : DUB, R5
Language : Russian
Default : Yes
Forced : No
Audio #2
ID : 3
Format : AC-3
Format/Info : Audio Coding 3
Mode extension : CM (complete main)
Format settings, Endianness : Big
Codec ID : A_AC3
Duration : 1 h 47 min
Bit rate mode : Constant
Bit rate : 192 kb/s
Channel(s) : 2 channels
Channel positions : Front: L R
Sampling rate : 48.0 kHz
Frame rate : 31.250 FPS (1536 spf)
Bit depth : 16 bits
Compression mode : Lossy
Delay relative to video : 42 ms
Stream size : 147 MiB (0%)
Title : MVO, ГТРК "Россия"
Language : Russian
Default : No
Forced : No
Audio #3
ID : 4
Format : DTS
Format/Info : Digital Theater Systems
Format profile : MA / Core
Mode : 16
Format settings, Endianness : Big
Codec ID : A_DTS
Duration : 1 h 47 min
Bit rate mode : Variable / Constant
Bit rate : 4 175 kb/s / 1 509 kb/s
Channel(s) : 6 channels
Channel positions : Front: L C R, Side: L R, LFE
Sampling rate : 48.0 kHz
Frame rate : 93.750 FPS (512 spf)
Bit depth : 24 bits
Compression mode : Lossless / Lossy
Stream size : 3.13 GiB (10%)
Title : AVO, М. Чадов
Language : Russian
Default : No
Forced : No
Audio #4
ID : 5
Format : DTS
Format/Info : Digital Theater Systems
Format profile : MA / Core
Mode : 16
Format settings, Endianness : Big
Codec ID : A_DTS
Duration : 1 h 47 min
Bit rate mode : Variable / Constant
Bit rate : 4 164 kb/s / 1 509 kb/s
Channel(s) : 6 channels
Channel positions : Front: L C R, Side: L R, LFE
Sampling rate : 48.0 kHz
Frame rate : 93.750 FPS (512 spf)
Bit depth : 24 bits
Compression mode : Lossless / Lossy
Delay relative to video : 42 ms
Stream size : 3.12 GiB (10%)
Title : AVO, С. Рябов
Language : Russian
Default : No
Forced : No
Audio #5
ID : 6
Format : DTS
Format/Info : Digital Theater Systems
Format profile : MA / Core
Mode : 16
Format settings, Endianness : Big
Codec ID : A_DTS
Duration : 1 h 47 min
Bit rate mode : Variable / Constant
Bit rate : 4 162 kb/s / 1 509 kb/s
Channel(s) : 6 channels
Channel positions : Front: L C R, Side: L R, LFE
Sampling rate : 48.0 kHz
Frame rate : 93.750 FPS (512 spf)
Bit depth : 24 bits
Compression mode : Lossless / Lossy
Delay relative to video : 42 ms
Stream size : 3.12 GiB (10%)
Title : AVO, С. Визгунов
Language : Russian
Default : No
Forced : No
Audio #6
ID : 7
Format : DTS
Format/Info : Digital Theater Systems
Format profile : MA / Core
Mode : 16
Format settings, Endianness : Big
Codec ID : A_DTS
Duration : 1 h 47 min
Bit rate mode : Variable / Constant
Bit rate : 4 700 kb/s / 1 509 kb/s
Channel(s) : 6 channels
Channel positions : Front: L C R, Side: L R, LFE
Sampling rate : 48.0 kHz
Frame rate : 93.750 FPS (512 spf)
Bit depth : 24 bits
Compression mode : Lossless / Lossy
Delay relative to video : 42 ms
Stream size : 3.52 GiB (12%)
Language : English
Default : No
Forced : No
Text #1
ID : 8
Format : UTF-8
Codec ID : S_TEXT/UTF8
Codec ID/Info : UTF-8 Plain Text
Duration : 1 h 41 min
Bit rate : 95 b/s
Count of elements : 1313
Stream size : 70.6 KiB (0%)
Language : Russian
Default : Yes
Forced : No
Text #2
ID : 9
Format : UTF-8
Codec ID : S_TEXT/UTF8
Codec ID/Info : UTF-8 Plain Text
Duration : 1 h 44 min
Bit rate : 63 b/s
Count of elements : 1727
Stream size : 48.5 KiB (0%)
Language : English
Default : No
Forced : No
Menu
00:00:00.000 : en:00:00:00.000
00:09:13.344 : en:00:09:13.344
00:15:09.158 : en:00:15:09.158
00:27:42.327 : en:00:27:42.327
00:37:39.883 : en:00:37:39.883
00:42:36.262 : en:00:42:36.262
00:48:52.388 : en:00:48:52.388
00:57:50.300 : en:00:57:50.300
01:04:46.966 : en:01:04:46.966
01:08:01.244 : en:01:08:01.244
01:13:16.892 : en:01:13:16.892
01:19:05.866 : en:01:19:05.866
01:34:04.681 : en:01:34:04.681
01:42:45.201 : en:01:42:45.201
Скриншоты:
[Профиль] [ЛС]
Показать сообщения:    
Ответить на тему

Текущее время: 29-Мар 16:16

Часовой пояс: UTC + 3



Вы не можете начинать темы
Вы не можете отвечать на сообщения
Вы не можете редактировать свои сообщения
Вы не можете удалять свои сообщения
Вы не можете голосовать в опросах
Вы не можете прикреплять файлы к сообщениям
Вы не можете скачивать файлы