Миссия: Неадекватна / Army of One (2016) BDRemux 1080p | iTunes

Ответить на тему
 
Автор Сообщение

Bot ®

Стаж: 5 лет 2 месяца

Сообщений: 30804

Откуда: СССР

Создавать темы 02-Янв-2017 11:47

[Цитировать]

Информация о фильме
Название: Миссия: Неадекватна
Оригинальное название: Army of One
Год выхода: 2016
Жанр: Комедия
Режиссер: Ларри Чарльз
В ролях: Николас Кейдж, Венди МакЛендон-Кови, Мэттью Модайн, Рэйн Уилсон, Дэнис О’Хэр, Фиона Врум, Расселл Брэнд, Хилари Джардин, Уилл Сассо, Пол Шеер, Адриан Мартинес
О фильме:
По всему миру происходит серия террористических атак. Люди напуганы, и никто не может чувствовать себя в безопасности. Средства массовой информации называют имя организатора и вдохновителя всех этих бесчинств — Усама бен Ладен. На этого человека охотятся все спецслужбы мира, однако выйди на его след никому не удается. Тогда обычный парень, проживающий в Колорадо, решает лично поквитаться с врагом всего человечества. Он уверен, что поимка террориста номер один — его главная миссия в жизни. Бросив все свои дела, он отправляется в Пакистан, где начинает поиски Усама бен Ладена, даже не подозревая, с чем ему предстоит столкнуться...

Страна: США
Студия: Conde Nast Entertainment, Endgame Entertainment
Продолжительность: 01:32:39
Перевод: Дублированный | iTunes
Файл
Качество: BDRemux 1080p
Видео: MPEG-4 AVC, 1920x1080, 22.4 Mbit/s, 23.976 fps
Звук:
Аудио #01: 48 kHz, AC3, 5.1, 384 Kbps | Дублированный | iTunes |
Аудио #02: 48 kHz, DTS-HD MA, 5.1, 3548 kbps | Оригинал |
Субтитры: Английские
MI
Общее
Уникальный идентификатор : 189773051916481161310214774687092717871 (0x8EC4F5D8579C68D882802D84B9A0392F)
Полное имя : F:VideoArmy.of.One.2016.BDREMUX.1080p.ExKinoRay.mkv
Формат : Matroska
Версия формата : Version 4 / Version 2
Размер файла : 17,0 Гбайт
Продолжительность : 1 ч. 32 м.
Режим общего битрейта : Переменный
Общий поток : 26,3 Мбит/сек
Название фильма : Army.of.One.2016 ***селезень***
Дата кодирования : UTC 2016-12-31 20:14:13
Программа кодирования : mkvmerge v8.3.0 ('Over the Horizon') 64bit
Библиотека кодирования : libebml v1.3.1 + libmatroska v1.4.2
Видео
Идентификатор : 1
Формат : AVC
Формат/Информация : Advanced Video Codec
Профиль формата : High@L4.1
Параметр CABAC формата : Да
Параметр ReFrames формата : 4 кадра
Параметр GOP формата : M=3, N=24
Идентификатор кодека : V_MPEG4/ISO/AVC
Продолжительность : 1 ч. 32 м.
Вид битрейта : Переменный
Битрейт : 22,4 Мбит/сек
Максимальный битрейт : 35,0 Мбит/сек
Ширина : 1920 пикселей
Высота : 1080 пикселей
Соотношение сторон : 16:9
Режим частоты кадров : Постоянный
Частота кадров : 23,976 (24000/1001) кадра/сек
Стандарт вещания : NTSC
Цветовое пространство : YUV
Субдискретизация насыщенности : 4:2:0
Битовая глубина : 8 бит
Тип развёртки : Прогрессивная
Бит/(Пиксели*Кадры) : 0.450
Размер потока : 14,5 Гбайт (85%)
Заголовок : Army.of.One.2016 ***селезень***
Язык : English
Default : Да
Forced : Нет
Цветовой диапазон : Limited
Основные цвета : BT.709
Характеристики трансфера : BT.709
Коэффициенты матрицы : BT.709
Аудио #1
Идентификатор : 2
Формат : AC-3
Формат/Информация : Audio Coding 3
Расширение режима : CM (complete main)
Параметр Endianness формата : Big
Идентификатор кодека : A_AC3
Продолжительность : 1 ч. 32 м.
Вид битрейта : Постоянный
Битрейт : 384 Кбит/сек
Каналы : 6 каналов
Расположение каналов : Front: L C R, Side: L R, LFE
Частота : 48,0 КГц
Частота кадров : 31,250 кадров/сек (1536 spf)
Битовая глубина : 16 бит
Метод сжатия : С потерями
Размер потока : 254 Мбайт (1%)
Заголовок : iTunes
Язык : Russian
Default : Да
Forced : Нет
Аудио #2
Идентификатор : 3
Формат : DTS
Формат/Информация : Digital Theater Systems
Профиль формата : MA / Core
Режим : 16
Параметр Endianness формата : Big
Идентификатор кодека : A_DTS
Продолжительность : 1 ч. 32 м.
Вид битрейта : Переменный / Постоянный
Битрейт : 3548 Кбит/сек / 1509 Кбит/сек
Каналы : 6 каналов
Расположение каналов : Front: L C R, Side: L R, LFE
Частота : 48,0 КГц
Частота кадров : 93,750 кадра/сек (512 spf)
Битовая глубина : 24 бит
Метод сжатия : Без потерь / Lossy
Размер потока : 2,30 Гбайт (13%)
Заголовок : Original
Язык : English
Default : Нет
Forced : Нет
Текст
Идентификатор : 4
Формат : UTF-8
Идентификатор кодека : S_TEXT/UTF8
Идентификатор кодека/Информация : UTF-8 Plain Text
Продолжительность : 1 ч. 27 м.
Битрейт : 92 бит/сек
Count of elements : 1975
Размер потока : 59,0 Кбайт (0%)
Заголовок : Full
Язык : English
Default : Нет
Forced : Нет
Меню
00:00:00.000 : en:00:00:00.000
00:05:22.697 : en:00:05:22.697
00:10:24.332 : en:00:10:24.332
00:18:19.974 : en:00:18:19.974
00:24:16.664 : en:00:24:16.664
00:31:13.330 : en:00:31:13.330
00:36:37.654 : en:00:36:37.654
00:45:30.353 : en:00:45:30.353
00:50:30.653 : en:00:50:30.653
00:56:58.165 : en:00:56:58.165
01:02:09.809 : en:01:02:09.809
01:07:41.891 : en:01:07:41.891
01:12:15.831 : en:01:12:15.831
01:15:46.834 : en:01:15:46.834
01:20:55.059 : en:01:20:55.059
01:26:06.036 : en:01:26:06.036
[Профиль] [ЛС]
Показать сообщения:    
Ответить на тему

Текущее время: 28-Июл 11:56

Часовой пояс: UTC + 3



Вы не можете начинать темы
Вы не можете отвечать на сообщения
Вы не можете редактировать свои сообщения
Вы не можете удалять свои сообщения
Вы не можете голосовать в опросах
Вы не можете прикреплять файлы к сообщениям
Вы не можете скачивать файлы