Ведьма из Блэр: Новая глава / Blair Witch (2016) BDRemux 1080p | D, A | iTunes

Ответить на тему
 
Автор Сообщение

Bot ®

Стаж: 5 лет 3 месяца

Сообщений: 31115

Откуда: СССР

Создавать темы 03-Янв-2017 08:18

[Цитировать]

Информация о фильме
Название: Ведьма из Блэр: Новая глава
Оригинальное название: Blair Witch
Год выхода: 2016
Жанр: Ужасы, триллер
Режиссер: Адам Вингард
В ролях: Джеймс Аллен МакКьюн, Калли Эрнандес, Корбин Рейд, Брэндон Скотт, Уэс Робинсон, Вэлори Керри
О фильме:
После обнаружения загадочной видеозаписи у Джеймса появляется надежда найти свою пропавшую сестру. Вместе с группой друзей он решается отправиться в лес Блэк Хиллз, известный по легенде о ведьме из Блэр. Но никакая самая страшная легенда не сравнится с тем кошмаром, который ждет их в реальности.

Страна: США
Студия: Lionsgate, Room 101, Snoot Entertainment, Vertigo Entertainment
Продолжительность: 01:29:11
Перевод(ы):
#1: Дублированный | iTunes
#2: Авторский | А. Матвеев (Doctor Joker)
Файл
Качество: BDRemux 1080p
Видео: MPEG-4 AVC, 1920x1080, 33.4 Mbit/s, 23.976 fps
Звук:
Аудио #01: 48 kHz, AC3, 5.1, 384 Kbps | Дублированный |
Аудио #02: 48 kHz, DTS-HD MA, 7.1, 4541 Kbps | Авторский |
Аудио #03: 48 kHz, AC3, 5.1, 640 Kbps | Авторский |
Аудио #04: 48 kHz, TrueHD, 7.1, 4507 kbps | Оригинал |
Субтитры: Русские, английские
MI
Общее
Уникальный идентификатор : 212962056518460798966205824828842525205 (0xA037000AED14E7688DBFEB99B7354215)
Полное имя : F:VideoBlair.Witch.2016.D.AVO.BDREMUX.1080p.ExKinoRay.mkv
Формат : Matroska
Версия формата : Version 4 / Version 2
Размер файла : 27,2 Гбайт
Продолжительность : 1 ч. 29 м.
Режим общего битрейта : Переменный
Общий поток : 43,6 Мбит/сек
Название фильма : Blair.Witch.2016 ***селезень***
Дата кодирования : UTC 2017-01-02 20:17:18
Программа кодирования : mkvmerge v8.3.0 ('Over the Horizon') 64bit
Библиотека кодирования : libebml v1.3.1 + libmatroska v1.4.2
Видео
Идентификатор : 1
Формат : AVC
Формат/Информация : Advanced Video Codec
Профиль формата : High@L4.1
Параметр CABAC формата : Да
Параметр ReFrames формата : 4 кадра
Идентификатор кодека : V_MPEG4/ISO/AVC
Продолжительность : 1 ч. 29 м.
Вид битрейта : Переменный
Битрейт : 33,4 Мбит/сек
Максимальный битрейт : 36,5 Мбит/сек
Ширина : 1920 пикселей
Высота : 1080 пикселей
Соотношение сторон : 16:9
Режим частоты кадров : Постоянный
Частота кадров : 23,976 (24000/1001) кадра/сек
Цветовое пространство : YUV
Субдискретизация насыщенности : 4:2:0
Битовая глубина : 8 бит
Тип развёртки : Прогрессивная
Бит/(Пиксели*Кадры) : 0.673
Размер потока : 20,8 Гбайт (77%)
Заголовок : Blair.Witch.2016 ***селезень***
Язык : English
Default : Нет
Forced : Нет
Аудио #1
Идентификатор : 2
Формат : AC-3
Формат/Информация : Audio Coding 3
Расширение режима : CM (complete main)
Параметр Endianness формата : Big
Идентификатор кодека : A_AC3
Продолжительность : 1 ч. 29 м.
Вид битрейта : Постоянный
Битрейт : 384 Кбит/сек
Каналы : 6 каналов
Расположение каналов : Front: L C R, Side: L R, LFE
Частота : 48,0 КГц
Частота кадров : 31,250 кадров/сек (1536 spf)
Битовая глубина : 16 бит
Метод сжатия : С потерями
Размер потока : 245 Мбайт (1%)
Заголовок : iTunes
Язык : Russian
Default : Да
Forced : Нет
Аудио #2
Идентификатор : 3
Формат : DTS
Формат/Информация : Digital Theater Systems
Профиль формата : MA / Core
Режим : 16
Параметр Endianness формата : Big
Идентификатор кодека : A_DTS
Продолжительность : 1 ч. 29 м.
Вид битрейта : Переменный / Постоянный
Битрейт : 4541 Кбит/сек / 1509 Кбит/сек
Каналы : 8 каналов / 6 каналов
Расположение каналов : Front: L C R, Side: L R, Back: L R, LFE / Front: L C R, Side: L R, LFE
Частота : 48,0 КГц
Частота кадров : 93,750 кадра/сек (512 spf)
Битовая глубина : 24 бит
Метод сжатия : Без потерь / Lossy
Размер потока : 2,83 Гбайт (10%)
Заголовок : AVO-DTS-HD MA [Matveev]
Язык : Russian
Default : Нет
Forced : Нет
Аудио #3
Идентификатор : 4
Формат : AC-3
Формат/Информация : Audio Coding 3
Расширение режима : CM (complete main)
Параметр Endianness формата : Big
Идентификатор кодека : A_AC3
Продолжительность : 1 ч. 29 м.
Вид битрейта : Постоянный
Битрейт : 640 Кбит/сек
Каналы : 6 каналов
Расположение каналов : Front: L C R, Side: L R, LFE
Частота : 48,0 КГц
Частота кадров : 31,250 кадров/сек (1536 spf)
Битовая глубина : 16 бит
Метод сжатия : С потерями
Размер потока : 408 Мбайт (1%)
Заголовок : AVO-AC3 [Matveev]
Язык : Russian
Default : Нет
Forced : Нет
Аудио #4
Идентификатор : 5
Формат : Atmos / TrueHD
Идентификатор кодека : A_TRUEHD
Продолжительность : 1 ч. 29 м.
Вид битрейта : Переменный
Битрейт : 4507 Кбит/сек
Максимальный битрейт : 7719 Кбит/сек
Каналы : Object Based / 8 каналов
Расположение каналов : Object Based / Front: L C R, Side: L R, Back: L R, LFE
Частота : / 48,0 КГц
Частота кадров : 1200,000 кадров/сек (40 spf)
Метод сжатия : Без потерь
Размер потока : 2,81 Гбайт (10%)
Заголовок : Original
Язык : English
Default : Нет
Forced : Нет
Текст #1
Идентификатор : 6
Формат : UTF-8
Идентификатор кодека : S_TEXT/UTF8
Идентификатор кодека/Информация : UTF-8 Plain Text
Продолжительность : 1 ч. 23 м.
Битрейт : 82 бит/сек
Count of elements : 737
Размер потока : 50,4 Кбайт (0%)
Заголовок : Full [Matveev]
Язык : Russian
Default : Нет
Forced : Нет
Текст #2
Идентификатор : 7
Формат : UTF-8
Идентификатор кодека : S_TEXT/UTF8
Идентификатор кодека/Информация : UTF-8 Plain Text
Продолжительность : 1 ч. 21 м.
Битрейт : 56 бит/сек
Count of elements : 1156
Размер потока : 33,6 Кбайт (0%)
Заголовок : Full
Язык : English
Default : Нет
Forced : Нет
Текст #3
Идентификатор : 8
Формат : UTF-8
Идентификатор кодека : S_TEXT/UTF8
Идентификатор кодека/Информация : UTF-8 Plain Text
Продолжительность : 1 ч. 21 м.
Битрейт : 69 бит/сек
Count of elements : 1380
Размер потока : 41,3 Кбайт (0%)
Заголовок : SDH
Язык : English
Default : Нет
Forced : Нет
Меню
00:00:00.000 : en:Chapter 1
00:05:09.351 : en:Chapter 2
00:08:24.337 : en:Chapter 3
00:10:57.740 : en:Chapter 4
00:16:17.268 : en:Chapter 5
00:21:14.440 : en:Chapter 6
00:29:41.279 : en:Chapter 7
00:35:57.822 : en:Chapter 8
00:40:35.433 : en:Chapter 9
00:46:00.257 : en:Chapter 10
00:52:30.647 : en:Chapter 11
00:59:20.724 : en:Chapter 12
01:04:41.794 : en:Chapter 13
01:09:51.479 : en:Chapter 14
01:15:52.339 : en:Chapter 15
01:20:29.283 : en:Chapter 16
[Профиль] [ЛС]
Показать сообщения:    
Ответить на тему

Текущее время: 18-Авг 09:52

Часовой пояс: UTC + 3



Вы не можете начинать темы
Вы не можете отвечать на сообщения
Вы не можете редактировать свои сообщения
Вы не можете удалять свои сообщения
Вы не можете голосовать в опросах
Вы не можете прикреплять файлы к сообщениям
Вы не можете скачивать файлы