Расплата / The Accountant [2016] ( Гэвин О’Коннор) [2016, Боевик, триллер, драма, криминал , BDRip 400p] [DD5.1] [Dub Rus, Englis + Subs Rus, ENG] [ iTunes]

Ответить на тему
 
Автор Сообщение

Bot ®

Стаж: 1 год 8 месяцев

Сообщений: 221

Откуда: КРАСНОГОРСК

Создавать темы 03-Янв-2017 13:07

[Цитировать]

--Расплата / The Accountant-- --Год выпуска: 2016
Выпущено: США , Electric City Entertainment, RatPac-Dune Entertainment, Warner Bros. Pictures, Zero Gravity Management
Жанр: Боевик, триллер, драма, криминал
Продолжительность: 02:07:54
Озвучка 1: Дублированный - - iTunes-Русский
Озвучка 2: Профессиональный многоголосый -Английский -Оригинал
Субтитры: Русские, английские
--IMDB --Режиссер:
Гэвин О’Коннор--В ролях: Бен Аффлек, Анна Кендрик, Дж.К. Симмонс, Джон Бернтал, Джеффри Тэмбор, Синтия Аддай-Робинсон, Джон Литгоу, Джин Смарт, Энди Умбергер, Элисон Райт--
Лента расскажет историю математического гения Кристиана Вульфа, который подрабатывает аудитором для самых опасных преступных организаций. Когда ему на хвост садится отдел по борьбе с преступностью Министерства финансов во главе с Рэем Кингом, Кристиан решает найти себе законопослушного клиента и проводит аудит в компании по производству новейшей робототехники, где сотрудница финансового отдела обнаружила «нестыковочку» в миллионы долларов. Но стоит Кристиану взяться за счета и выйти на след, как в деле начинают появляться жертвы.
-- --Качество :BDRip 400p
Формат: MKV
Видео кодек: H264
Видео: 4140Кбит/сек,720х400(16.9),в 25.000кадр/сек,AVC(Baseline@L3)(1Ref Frames)
Аудио Кодек:AC3
Аудио #1:AC3 , 640 Kbps, 48.0 KHz, 6 ch- -Дублированный- iTunes-Русский
Аудио #2: AC3, 640 Kbps, 48.0 KHz,6 ch - - English-Английский -Оригинал--
MediaInfo
Общее
Уникальный идентификатор : 248844182724068980911471326329360779237 (0xBB35A573E210ED3193B65BF5F03287E5)
Полное имя : C:\ПИРАТИЯ(PIRATIYA)\РАСПЛАТА(The Accountant)\The_Accountant_2016_Rus_DUB_iTunes _Eng_H264_DD5.1_N.B_BDRip_400p\The_Accountant_2016_Rus_DUB_iTunes _Eng_H264_DD5.1_N.B_BDRip_400p.mkv
Формат : Matroska
Версия формата : Version 4 / Version 2
Размер файла : 4,88 Гбайт
Продолжительность : 2 ч. 7 м.
Режим общего битрейта : Переменный
Общий поток : 5459 Кбит/сек
Название фильма : The_Accountant_2016_Rus_DUB_iTunes _Eng_H264_DD5.1_N.B_BDRip_400p
Дата кодирования : UTC 2017-01-03 07:34:30
Программа кодирования : mkvmerge v9.7.1 ('Pandemonium') 64bit
Библиотека кодирования : libebml v1.3.4 + libmatroska v1.4.5
Видео
Идентификатор : 1
Формат : AVC
Формат/Информация : Advanced Video Codec
Профиль формата : Baseline@L3
Параметр CABAC формата : Нет
Параметр ReFrames формата : 1 кадр
Параметр GOP формата : M=1, N=12
Идентификатор кодека : V_MPEG4/ISO/AVC
Продолжительность : 2 ч. 7 м.
Вид битрейта : Переменный
Битрейт : 4140 Кбит/сек
Максимальный битрейт : 6000 Кбит/сек
Ширина : 720 пикселей
Высота : 400 пикселей
Соотношение сторон : 16:9
Режим частоты кадров : Постоянный
Частота кадров : 25,000 кадров/сек
Частота кадров в оригинале : 24,000 кадра/сек
Цветовое пространство : YUV
Субдискретизация насыщенности : 4:2:0
Битовая глубина : 8 бит
Тип развёртки : Прогрессивная
Бит/(Пиксели*Кадры) : 0.575
Размер потока : 3,70 Гбайт (76%)
Заголовок : The_Accountant_2016_Rus_DUB_iTunes _Eng_H264_DD5.1_N.B_BDRip_400p
Язык : Russian
Default : Да
Forced : Нет
Аудио #1
Идентификатор : 7
Формат : AC-3
Формат/Информация : Audio Coding 3
Расширение режима : CM (complete main)
Параметр Endianness формата : Big
Идентификатор кодека : A_AC3
Продолжительность : 2 ч. 7 м.
Вид битрейта : Постоянный
Битрейт : 640 Кбит/сек
Каналы : 6 каналов
Расположение каналов : Front: L C R, Side: L R, LFE
Частота : 48,0 КГц
Частота кадров : 31,250 кадров/сек (1536 spf)
Битовая глубина : 16 бит
Метод сжатия : С потерями
Размер потока : 585 Мбайт (12%)
Заголовок : Rus DUB iTunes @DD5.1 AC3 ,640 Kbps, 48.0 KHz, 6 ch
Язык : Russian
Default : Да
Forced : Нет
Аудио #2
Идентификатор : 8
Формат : AC-3
Формат/Информация : Audio Coding 3
Расширение режима : CM (complete main)
Параметр Endianness формата : Big
Идентификатор кодека : A_AC3
Продолжительность : 2 ч. 7 м.
Вид битрейта : Постоянный
Битрейт : 640 Кбит/сек
Каналы : 6 каналов
Расположение каналов : Front: L C R, Side: L R, LFE
Частота : 48,0 КГц
Частота кадров : 31,250 кадров/сек (1536 spf)
Битовая глубина : 16 бит
Метод сжатия : С потерями
Размер потока : 585 Мбайт (12%)
Заголовок : Original@DD5.1 AC3 ,640 Kbps, 48.0 KHz, 6 ch
Язык : English
Default : Нет
Forced : Нет
Текст #1
Идентификатор : 2
Формат : PGS
Режим смешивания : zlib
Идентификатор кодека : S_HDMV/PGS
Идентификатор кодека/Информация : Picture based subtitle format used on BDs/HD-DVDs
Продолжительность : 1 ч. 53 м.
Битрейт : 701 бит/сек
Count of elements : 78
Размер потока : 583 Кбайт (0%)
Заголовок : Rus Forsed
Язык : Russian
Default : Да
Forced : Нет
Текст #2
Идентификатор : 3
Формат : PGS
Режим смешивания : zlib
Идентификатор кодека : S_HDMV/PGS
Идентификатор кодека/Информация : Picture based subtitle format used on BDs/HD-DVDs
Продолжительность : 2 ч. 7 м.
Битрейт : 24,2 Кбит/сек
Count of elements : 3092
Размер потока : 22,0 Мбайт (0%)
Заголовок : Rus
Язык : Russian
Default : Нет
Forced : Нет
Текст #3
Идентификатор : 4
Формат : UTF-8
Идентификатор кодека : S_TEXT/UTF8
Идентификатор кодека/Информация : UTF-8 Plain Text
Продолжительность : 1 ч. 58 м.
Битрейт : 95 бит/сек
Count of elements : 1294
Размер потока : 82,9 Кбайт (0%)
Заголовок : Rus
Язык : Russian
Default : Нет
Forced : Нет
Текст #4
Идентификатор : 5
Формат : PGS
Режим смешивания : zlib
Идентификатор кодека : S_HDMV/PGS
Идентификатор кодека/Информация : Picture based subtitle format used on BDs/HD-DVDs
Продолжительность : 2 ч. 7 м.
Битрейт : 11,5 Кбит/сек
Count of elements : 3404
Размер потока : 10,5 Мбайт (0%)
Заголовок : Original
Язык : English
Default : Нет
Forced : Нет
Текст #5
Идентификатор : 6
Формат : UTF-8
Идентификатор кодека : S_TEXT/UTF8
Идентификатор кодека/Информация : UTF-8 Plain Text
Продолжительность : 1 ч. 59 м.
Битрейт : 59 бит/сек
Count of elements : 1693
Размер потока : 52,3 Кбайт (0%)
Заголовок : Original
Язык : English
Default : Нет
Forced : Нет
Меню
00:00:00.000 : en:Глава 01 / en:Глава 01 / en:Глава 01 / en:Глава 01 / en:Глава 01 / en:Глава 01 / en:Глава 01 / en:Глава 01
--
Скриншоты
-- -- -- --Релиз от: Nikolai.Baranov & PIRATIYA -- -- -- --
[Профиль] [ЛС]
Показать сообщения:    
Ответить на тему

Текущее время: 19-Авг 01:10

Часовой пояс: UTC + 3



Вы не можете начинать темы
Вы не можете отвечать на сообщения
Вы не можете редактировать свои сообщения
Вы не можете удалять свои сообщения
Вы не можете голосовать в опросах
Вы не можете прикреплять файлы к сообщениям
Вы не можете скачивать файлы