Сегодня идет свободное скачивание без начисления Download

Боязнь пауков / Arachnophobia (1990) BDRip 720p | P, P2, A

Ответить на тему
 
Автор Сообщение

Bot ®

Стаж: 11 месяцев 14 дней

Сообщений: 2080

Создавать темы 07-Янв-2017 02:30

[Цитировать]

Информация о фильме
Название: Боязнь пауков
Оригинальное название: Arachnophobia
Год выхода: 1990
Жанр: ужасы, фэнтези, триллер, комедия
Режиссер: Фрэнк Маршалл
В ролях: Джефф Дэниелс, Харли Джейн Козак, Джон Гудман, Джулиан Сэндс, Стюарт Пэнкин, Брайан МакНамара, Марк Л. Тейлор, Генри Джонс, Питер Джейсон, Джеймс Хэнди
О фильме:
В душе каждого живет неуправляемый первобытный страх. И однажды человеку суждено столкнуться с ним лицом к лицу. Доктор Росс Дженнингс страдает арахнофобией, экзотическим заболеванием, связанным с боязнью пауков. Он перебирается в маленький провинциальный городок в надежде на тихую и спокойную жизнь. Но по роковой случайности, из южноамериканских джунглей туда попадает смертоносный паук.

Страна: США
Студия: Hollywood Pictures, Amblin Entertainment, Tangled Web Productions
Продолжительность: 01:49:42
Перевод: Профессиональный (многоголосый, закадровый) + Профессиональный (двухголосый, закадровый) НТВ+ + Авторский (одноголосый, закадровый) В.Дохалов
***Сохранены оригинальные главы как на Blu-ray.
***Релиз - msltel.
Файл
Формат: Matroska
Качество: BDRip 720p
Видео: 1280x694 at 23.976 fps, x264@L4.1, ~6510 kbps avg
Аудио#1: Russian: 48 kHz, AC3, 2/0 (L,R) ch, ~192 kbps |Многоголосый закадровый|
Аудио#2: Russian: 48 kHz, AC3, 3/2 (L,C,R,l,r) + LFE ch, ~448 kbps |Двухголосый закадровый, НТВ+|
Аудио#3: Russian: 48 kHz, AC3, 3/2 (L,C,R,l,r) + LFE ch, ~448 kbps |Авторский, В.Дохалов|
Аудио#4: English: 48 kHz, AC3, 3/2 (L,C,R,l,r) + LFE ch, ~448 kbps
Субтиры: English
Знаете ли вы, что...
  • В фильме был использован вид пауков Delena cancerides из Новой Зеландии. Несмотря на свой угрожающий вид, они не опасны для человека.
  • Герой Джона Гудмана, убийца насекомых Делберт МакКлинток, давит паука, и раздается противный склизкий звук. Звукорежиссеры фильма добились такого эффекта, раздавив парочку картофельных чипсов. Кроме того, для тех же целей иногда использовали упаковки с горчицей.
  • В сцене, когда пауки начинают атаковать дом, по телевизору показывают фильм Семейные узы (1982).
  • Канайма (название городка в фильме) является именем духа мести в мифологии индейцев Гайаны. Это также название местности в Венесуэле недалеко от водопада Анхель — месте съемок фильма.
  • Картина снималась в городе Камбрия (штат Калифорния), а также в Венесуэле.
  • Новый вид бабочки, который находят ученые в начале фильма — «Урания мадагаскарская», реально существующий вид.
MI
Общее
Уникальный идентификатор : 190980717257651925986530706462708574614 (0x8FAD8C57EE191A94A798CD4A0007A996)
Полное имя : Боязнь пауков.1990.BDRip.720p by msltel.mkv
Формат : Matroska
Версия формата : Version 4 / Version 2
Размер файла : 6,29 Гбайт
Продолжительность : 1 ч. 49 м.
Общий поток : 8209 Кбит/сек
Название фильма : Rip by msltel
Дата кодирования : UTC 2017-01-06 04:13:36
Программа кодирования : mkvmerge v8.2.0 ('World of Adventure') 64bit
Библиотека кодирования : libebml v1.3.1 + libmatroska v1.4.2
Видео
Идентификатор : 1
Формат : AVC
Формат/Информация : Advanced Video Codec
Профиль формата : High@L4.1
Параметр CABAC формата : Да
Параметр ReFrames формата : 9 кадров
Идентификатор кодека : V_MPEG4/ISO/AVC
Продолжительность : 1 ч. 49 м.
Битрейт : 6510 Кбит/сек
Ширина : 1280 пикселей
Высота : 694 пикселя
Соотношение сторон : 1,85:1
Режим частоты кадров : Постоянный
Частота кадров : 23,976 кадра/сек
Цветовое пространство : YUV
Субдискретизация насыщенности : 4:2:0
Битовая глубина : 8 бит
Тип развёртки : Прогрессивная
Бит/(Пиксели*Кадры) : 0.306
Размер потока : 4,99 Гбайт (79%)
Библиотека кодирования : x264 core 146 r2538 121396c
Настройки программы : cabac=1 / ref=9 / deblock=1:-3:-3 / analyse=0x3:0x113 / me=umh / subme=10 / psy=1 / psy_rd=1.00:0.15 / mixed_ref=1 / me_range=32 / chroma_me=1 / trellis=2 / 8x8dct=1 / cqm=0 / deadzone=21,11 / fast_pskip=0 / chroma_qp_offset=-3 / threads=6 / lookahead_threads=1 / sliced_threads=0 / nr=0 / decimate=1 / interlaced=0 / bluray_compat=0 / constrained_intra=0 / bframes=16 / b_pyramid=2 / b_adapt=2 / b_bias=0 / direct=1 / weightb=0 / open_gop=0 / weightp=2 / keyint=230 / keyint_min=23 / scenecut=40 / intra_refresh=0 / rc_lookahead=40 / rc=crf / mbtree=0 / crf=18.4 / qcomp=0.60 / qpmin=0 / qpmax=69 / qpstep=4 / vbv_maxrate=50000 / vbv_bufsize=62500 / crf_max=0.0 / nal_hrd=none / filler=0 / ip_ratio=1.40 / pb_ratio=1.30 / aq=1:1.00
Язык : English
Default : Да
Forced : Нет
Аудио #1
Идентификатор : 2
Формат : AC-3
Формат/Информация : Audio Coding 3
Расширение режима : CM (complete main)
Параметр Endianness формата : Big
Идентификатор кодека : A_AC3
Продолжительность : 1 ч. 49 м.
Вид битрейта : Постоянный
Битрейт : 192 Кбит/сек
Каналы : 2 канала
Расположение каналов : Front: L R
Частота : 48,0 КГц
Битовая глубина : 16 бит
Метод сжатия : С потерями
Размер потока : 151 Мбайт (2%)
Заголовок : MVO
Язык : Russian
Default : Да
Forced : Нет
Аудио #2
Идентификатор : 3
Формат : AC-3
Формат/Информация : Audio Coding 3
Расширение режима : CM (complete main)
Параметр Endianness формата : Big
Идентификатор кодека : A_AC3
Продолжительность : 1 ч. 49 м.
Вид битрейта : Постоянный
Битрейт : 448 Кбит/сек
Каналы : 6 каналов
Расположение каналов : Front: L C R, Side: L R, LFE
Частота : 48,0 КГц
Битовая глубина : 16 бит
Метод сжатия : С потерями
Размер потока : 352 Мбайт (5%)
Заголовок : DVO
Язык : Russian
Default : Нет
Forced : Нет
Аудио #3
Идентификатор : 4
Формат : AC-3
Формат/Информация : Audio Coding 3
Расширение режима : CM (complete main)
Параметр Endianness формата : Big
Идентификатор кодека : A_AC3
Продолжительность : 1 ч. 49 м.
Вид битрейта : Постоянный
Битрейт : 448 Кбит/сек
Каналы : 6 каналов
Расположение каналов : Front: L C R, Side: L R, LFE
Частота : 48,0 КГц
Битовая глубина : 16 бит
Метод сжатия : С потерями
Размер потока : 352 Мбайт (5%)
Заголовок : AVO (Вартан Дохалов)
Язык : Russian
Default : Нет
Forced : Нет
Аудио #4
Идентификатор : 5
Формат : AC-3
Формат/Информация : Audio Coding 3
Расширение режима : CM (complete main)
Параметр Endianness формата : Big
Идентификатор кодека : A_AC3
Продолжительность : 1 ч. 49 м.
Вид битрейта : Постоянный
Битрейт : 448 Кбит/сек
Каналы : 6 каналов
Расположение каналов : Front: L C R, Side: L R, LFE
Частота : 48,0 КГц
Битовая глубина : 16 бит
Метод сжатия : С потерями
Размер потока : 352 Мбайт (5%)
Заголовок : original
Язык : English
Default : Нет
Forced : Нет
Текст
Идентификатор : 6
Формат : UTF-8
Идентификатор кодека : S_TEXT/UTF8
Идентификатор кодека/Информация : UTF-8 Plain Text
Заголовок : английские (для слабослышащих)
Язык : English
Default : Нет
Forced : Нет
Меню
00:00:00.000 : :Chapter 01
00:17:26.462 : :Chapter 02
00:36:46.536 : :Chapter 03
00:58:04.522 : :Chapter 04
01:13:08.591 : :Chapter 05
01:26:17.213 : :Chapter 06
01:31:32.987 : :Chapter 07
01:43:41.673 : :Chapter 08
01:49:31.022 : :Chapter 09
Скриншоты
[Профиль] [ЛС]
Показать сообщения:    
Ответить на тему

Текущее время: 22-Июн 19:31

Часовой пояс: UTC + 3



Вы не можете начинать темы
Вы не можете отвечать на сообщения
Вы не можете редактировать свои сообщения
Вы не можете удалять свои сообщения
Вы не можете голосовать в опросах
Вы не можете прикреплять файлы к сообщениям
Вы не можете скачивать файлы