Сегодня идет свободное скачивание без начисления Download

Война против всех / War on Everyone (2016) WEB-DL 720p | A

Ответить на тему
Статистика раздачи
Размер:  3,17 GB   |    Зарегистрирован:  16 дней   |    Скачан:  0 раз
Сидов:  1024  [  0 KB/s  ]   Личеров:  209  [  0 KB/s  ]   Подробная статистика пиров
 
   
 
 
Автор Сообщение

Bot ®

Стаж: 6 месяцев 14 дней

Сообщений: 1422

Создавать темы 07-Янв-2017 02:35

[Цитировать]

Информация о фильме
Название: Война против всех
Оригинальное название: War on Everyone
Год выхода: 2016
Жанр: комедия
Режиссер: Джон Майкл МакДона
В ролях: Александр Скарсгард, Майкл Пенья, Тесса Томпсон, Тео Джеймс, Калеб Лэндри Джонс, Малкольм Баррет, Дэвид Уилмот, Стефани Сигман, Пол Райзер, Джеффри Померой
О фильме:
Двое коррумпированных копов-отморозков из Нью-Мексико прессуют всех, кто попадается им под руку… или под колеса авто. Судьба подкидывает им шанс срубить целый миллион долларов, но на смачный куш также претендует эксцентричный английский лорд не без странных пристрастий. В борьбе за заслуженный улов напарники случайно узнают о стрёмных секретах красавчика-лорда и впрягаются нести возмездие. Плохим копам не терпится попробовать нечто совсем новое — борьбу за справедливость… ну, за то, как они понимают справедливость.

Страна: Великобритания
Студия: Reprisal Films, Head Gear Films, Kreo Films FZ
Продолжительность: 01:37:38
Перевод: Авторский (одноголосый закадровый) Дмитрий "Гоблин" Пучков (запись с кинотеатра)
Файл
Кодек: H264
Качество: WEB-DL 720p
Видео: 1280x530 (2.40:1), 24 fps, ~4065 kbps avg, 0.25 bit/pixel
Аудио#1: 48 kHz, AC3 Dolby Digital, 2/0 (L,R) ch, ~192 kbps - Гоблин
Аудио#2: 48 kHz, AC3 Dolby Digital, 3/2 (L,C,R,l,r) + LFE ch, ~384 kbps - Оригинал
Субтитры: русские (полные), английские (форсированные)
Доп.инфо
за видеоряд спасибо форуму HDClub
за дорогу Пучкова спасибо skylink912
MediaInfo
Complete name : Война против всех 2016 WEB-DL720p.mkv
Format : Matroska
Format version : Version 4 / Version 2
File size : 3.17 GiB
Duration : 1 h 37 min
Overall bit rate : 4 643 kb/s
Encoded date : UTC 2017-01-06 06:10:46
Writing application : mkvmerge v8.3.0 ('Over the Horizon') 64bit
Writing library : libebml v1.3.1 + libmatroska v1.4.2
Video
ID : 1
Format : AVC
Format/Info : Advanced Video Codec
Format profile : Main@L3.1
Format settings, CABAC : No
Format settings, ReFrames : 2 frames
Format settings, GOP : N=1
Codec ID : V_MPEG4/ISO/AVC
Duration : 1 h 37 min
Bit rate : 4 065 kb/s
Width : 1 280 pixels
Height : 530 pixels
Display aspect ratio : 2.40:1
Frame rate mode : Constant
Frame rate : 24.000 FPS
Color space : YUV
Chroma subsampling : 4:2:0
Bit depth : 8 bits
Scan type : Progressive
Bits/(Pixel*Frame) : 0.250
Stream size : 2.77 GiB (88%)
Language : English
Default : Yes
Forced : No
Color range : Limited
Color primaries : BT.709
Transfer characteristics : BT.709
Matrix coefficients : BT.709
Audio #1
ID : 2
Format : AC-3
Format/Info : Audio Coding 3
Mode extension : CM (complete main)
Format settings, Endianness : Big
Codec ID : A_AC3
Duration : 1 h 37 min
Bit rate mode : Constant
Bit rate : 192 kb/s
Channel(s) : 2 channels
Channel positions : Front: L R
Sampling rate : 48.0 kHz
Frame rate : 31.250 FPS (1536 spf)
Bit depth : 16 bits
Compression mode : Lossy
Stream size : 134 MiB (4%)
Title : AC3 2.0 @192 kbps
Language : Russian
Default : Yes
Forced : No
Audio #2
ID : 3
Format : AC-3
Format/Info : Audio Coding 3
Mode extension : CM (complete main)
Format settings, Endianness : Big
Codec ID : A_AC3
Duration : 1 h 37 min
Bit rate mode : Constant
Bit rate : 384 kb/s
Channel(s) : 6 channels
Channel positions : Front: L C R, Side: L R, LFE
Sampling rate : 48.0 kHz
Frame rate : 31.250 FPS (1536 spf)
Bit depth : 16 bits
Compression mode : Lossy
Stream size : 268 MiB (8%)
Title : AC3 5.1 @ 384 kbps
Language : English
Default : No
Forced : No
Text #1
ID : 4
Format : UTF-8
Codec ID : S_TEXT/UTF8
Codec ID/Info : UTF-8 Plain Text
Duration : 1 h 32 min
Bit rate : 91 b/s
Count of elements : 1491
Stream size : 61.6 KiB (0%)
Title : iTunes
Language : Russian
Default : Yes
Forced : No
Text #2
ID : 5
Format : UTF-8
Codec ID : S_TEXT/UTF8
Codec ID/Info : UTF-8 Plain Text
Duration : 41 min 28 s
Bit rate : 1 b/s
Count of elements : 7
Stream size : 327 Bytes (0%)
Title : Forced, iTunes
Language : English
Default : No
Forced : No
Menu
00:00:00.000 : en:1
00:14:21.486 : en:2
00:30:15.189 : en:3
00:46:31.957 : en:4
01:01:36.361 : en:5
01:16:04.562 : en:6
01:33:24.852 : en:7
Скриншоты
[realmt.org].t821432.torrent 
Торрент: Зарегистрирован [ 2017-01-07 02:35 ] · 312713C0898C776A3FE7CC5C5101F8B8994415AF

Скачать .torrent

Скачать

16 KB

Статус: T временная
Скачан: 0 раз
Размер: 3,17 GB
Оценка:  - (Голосов: 0)
Поблагодарили: 1  Спасибо   (список)
terms.php
Похожие темы
[Профиль] [ЛС]
Быстрый ответ

Имя:

      
Для отправки сообщений необходимо включить JavaScript
Показать сообщения:    
Ответить на тему

Текущее время: 23-Янв 09:30

Часовой пояс: UTC + 3



Вы можете начинать темы
Вы можете отвечать на сообщения
Вы не можете редактировать свои сообщения
Вы не можете удалять свои сообщения
Вы не можете голосовать в опросах
Вы не можете прикреплять файлы к сообщениям
Вы можете скачивать файлы