Супермозг / Le cerveau (1969) HDTV

Ответить на тему
 
Автор Сообщение

Bot ®

Стаж: 1 год 11 месяцев

Сообщений: 7

Создавать темы 07-Янв-2017 23:32

[Цитировать]

Супермозг / Le cerveau (1969) HDTV- Год выпуска: 1969
Жанр: Комедия
Описание:
В основе фильма лежит реальная история ограбления поезда Глазго-Лондон в 1963 году.
Мелкий воришка Артур (Жан-Поль Бельмондо) задумал, наконец, провернуть крупное дело — ограбить НАТОвский поезд, перевозящий тайные фонды 14-ти стран из Парижа в Брюссель. Для этого Артур бежит из тюрьмы за четыре дня до освобождения при помощи своего друга Анатоля (Бурвиль). Но и гениальный британский грабитель по кличке Супермозг (Дэвид Найвен), объединившись с сицилийской мафией, тоже готовит ограбление этого поезда. Артур и Анатоль хотят повторить план Супермозга, ограбившего незадолго до этого поезд Глазго-Лондон, не зная при этом, что и тот намеревается повторить свой план, рассчитывая, что никто не ожидает от гениального преступника повторения, и меры предосторожности приняты не будут. Для начала Артур и Анатоль устанавливают слежку за полковником Мэтьюсом, который должен сопровождать поезд, не подозревая, что это и есть Супермозг. Таким образом грабители одновременно воплощают один и тот же план, но сицилийцам удаётся обмануть их: инсценировав полицейскую операцию, они забирают деньги и скрываются. Остаётся только переправить мешки с долларами в Америку. Для этого используется статуя Свободы — подарок Франции США. Набитую деньгами статую должны отправить на корабле, но тут в дело опять вмешиваются Артур и Анатоль, и многочисленная толпа, находящаяся на пристани, наблюдает за долларовым дождём.
Режиссер: Жерар Ури
Актеры: В ролях: Жан-Поль Бельмондо, Бурвиль , Дэвид Нивен , Эли Уоллах , Сильвия Монти , Раймон Жером , Робер Далбан, Марио Дави , Анри Жене , Поль Мерси
Продолжительность: 01.49.57
Перевод: Двуголосый закадровый
Язык субтитров: отсутствуют

Дата мировой премьеры: 7 марта 1969 года
Видеокодек: MPEG-4 AVC/H.264
Битрейт видео: ~9883 Кбит/сек
Размер кадра: 1280 х 720
Качество видео: HDTV
Аудиокодек: AC3
Битрейт аудио:
аудио 1: 192 Кбит/сек, 2 канала
аудио 2: 448 Кбит/сек, 2 канала
Mediainfo :[spoiler=""]Общее
Идентификатор : 1 (0x1)
Полное имя : R:\ФИЛЬМЫ ( Blu-Ray)\КОМЕДИИ\Супермозг 1969\Супермозг 1969.ts
Формат : MPEG-TS
Размер файла : 8,51 Гбайт
Продолжительность : 1 ч. 50 м.
Режим общего битрейта : Переменный
Общий поток : 11,1 Мбит/сек
Максимальный общий битрейт : 35,5 Мбит/сек
Видео
Идентификатор : 4113 (0x1011)
Идентификатор меню : 1 (0x1)
Формат : AVC
Формат/Информация : Advanced Video Codec
Профиль формата : High@L4.0
Параметр CABAC формата : Да
Параметр ReFrames формата : 2 кадра
Параметр GOP формата : M=3, N=24
Идентификатор кодека : 27
Продолжительность : 1 ч. 50 м.
Вид битрейта : Переменный
Битрейт : 9883 Кбит/сек
Максимальный битрейт : 13,2 Мбит/сек
Ширина : 1280 пикселей
Высота : 720 пикселей
Соотношение сторон : 16:9
Частота кадров : 50,000 кадров/сек
Цветовое пространство : YUV
Субдискретизация насыщенности : 4:2:0
Битовая глубина : 8 бит
Тип развёртки : Прогрессивная
Бит/(Пиксели*Кадры) : 0.214
Размер потока : 7,60 Гбайт (89%)
Основные цвета : BT.709-5, BT.1361, IEC 61966-2-4, SMPTE RP177
Характеристики трансфера : BT.709-5, BT.1361
Коэффициенты матрицы : BT.709-5, BT.1361, IEC 61966-2-4 709, SMPTE RP177
Аудио #1
Идентификатор : 4352 (0x1100)
Идентификатор меню : 1 (0x1)
Формат : AC-3
Формат/Информация : Audio Coding 3
Расширение режима : CM (complete main)
Параметр Endianness формата : Big
Идентификатор кодека : 129
Продолжительность : 1 ч. 49 м.
Вид битрейта : Постоянный
Битрейт : 192 Кбит/сек
Каналы : 2 канала
Расположение каналов : Front: L R
Частота : 48,0 КГц
Битовая глубина : 16 бит
Метод сжатия : С потерями
Задержка видео : 300 мс.
Размер потока : 151 Мбайт (2%)
Язык : Russian
Аудио #2
Идентификатор : 4353 (0x1101)
Идентификатор меню : 1 (0x1)
Формат : AC-3
Формат/Информация : Audio Coding 3
Расширение режима : CM (complete main)
Параметр Endianness формата : Big
Идентификатор кодека : 129
Продолжительность : 1 ч. 50 м.
Вид битрейта : Постоянный
Битрейт : 448 Кбит/сек
Каналы : 2 канала
Расположение каналов : Front: L R
Частота : 48,0 КГц
Битовая глубина : 16 бит
Метод сжатия : С потерями
Задержка видео : 198 мс.
Размер потока : 353 Мбайт (4%)
Язык : FrenchСкриншоты:
Время раздачи: 12/7
[Профиль] [ЛС]
Показать сообщения:    
Ответить на тему

Текущее время: 24-Июл 21:37

Часовой пояс: UTC + 3



Вы не можете начинать темы
Вы не можете отвечать на сообщения
Вы не можете редактировать свои сообщения
Вы не можете удалять свои сообщения
Вы не можете голосовать в опросах
Вы не можете прикреплять файлы к сообщениям
Вы не можете скачивать файлы