Сегодня идет свободное скачивание без начисления Download

Со мною вот что происходит (2012) DVDRip

Ответить на тему
 
Автор Сообщение

Bot ®

Стаж: 1 год 8 месяцев

Сообщений: 6

Создавать темы 07-Янв-2017 23:48

[Цитировать]

Со мною вот что происходит (2012) DVDRip- Русское название: Со мною вот что происходит
Год выпуска: 2012
Производство: Россия / Кинокомпания «Сцена», YBW-group
Жанр: Мелодрама, Комедия
Перевод: Не требуется (Русский)
Субтитры: Отсутствуют
Дата мировой премьеры: 6 декабря 2012
Дата российской премьеры: 6 декабря 2012, «Другое кино», «All Media»
Режиссер: Виктор Шамиров
Продюсер: Эдуард Илоян, Гоша Куценко, Андрей Новиков
Актеры: Гоша Куценко, Виктор Шамиров, Александра Петрова (II), Олеся Железняк, Николай Чиндяйкин, Маргарита Шубина, Александр Робак, Михаил Шульц, Александр Гришаев, Павел Сборщиков
Описание фильма:
31 декабря. Московские невозможные пробки. Спешка без результатов, помощь, от которой никому не становится легче. Разговоры о бесконечных мелочах, в которых проходит жизнь – а может, уже и прошла. Об отце, которому осталось всего ничего, и ничего не сделаешь. О планах пятнадцатилетней девочки на жизнь: можно стать онкологом, можно – дизайнером еды. О том, что было, и что теперь.
Это не сюжетный фильм, это лирика суеты под музыку Таривердиева и воспоминание о счастье, о времени, когда «Ирония судьбы» на самом деле могла утешить и обнадежить и пообещать в Новом году новую жизнь.

Продолжительность: 01:13:34
Качество видео: DVDRip
Видеокодек: Xvid
Битрейт видео: ~2198 Kbit/s
Размер кадра: 720x304
Аудиокодек: AC3, 2 ch
Битрейт аудио: 448 Kbit/sВсе раздачи «Со мною вот что происходит» на NNM-club
Награды, номинации, фестивали

КФ «Золотой Феникс»: спец. приз им. С. Коненкова «За лучшее изобразительное решение»
КФ «Виват, кино России!»: приз за лучшую мужскую роль Г.Куценко и В.Шамирову
МКФ «Pacific Meredian»: приз им. Юла Бриннера за лучший дебют Александре Петровой
МКФ «Золотой Гепрад»: приз «За филигранную актерскую игру» Г.Куценко
MediaInfo
Общее
Полное имя : E:\Фильмы\So.mnou.vot.chto.proishodit.2012.DVDRip.avi
Формат : AVI
Формат/Информация : Audio Video Interleave
Размер файла : 1,37 Гбайт
Продолжительность : 1 ч. 13 м.
Общий поток : 2656 Кбит/сек
Программа кодирования : VirtualDubMod 1.5.10.3 | www.virtualdub-fr.org || (build 2550/release)
Библиотека кодирования : VirtualDubMod build 2550/release
Видео
Идентификатор : 0
Формат : MPEG-4 Visual
Профиль формата : Advanced Simple@L5
Параметр BVOP формата : 2
Параметр QPel формата : Нет
Параметр GMC формата : Без точки перехода
Параметр матрицы формата : Default (MPEG)
Идентификатор кодека : XVID
Идентификатор кодека/Подсказка : XviD
Продолжительность : 1 ч. 13 м.
Битрейт : 2198 Кбит/сек
Ширина : 720 пикселей
Высота : 304 пикселя
Соотношение сторон : 2,35:1
Частота кадров : 25,000 кадров/сек
Цветовое пространство : YUV
Субдискретизация насыщенности : 4:2:0
Битовая глубина : 8 бит
Тип развёртки : Прогрессивная
Метод сжатия : С потерями
Бит/(Пиксели*Кадры) : 0.402
Размер потока : 1,13 Гбайт (83%)
Библиотека кодирования : XviD 1.2.1 (UTC 2008-12-04)
Аудио
Идентификатор : 1
Формат : AC-3
Формат/Информация : Audio Coding 3
Расширение режима : CM (complete main)
Параметр Endianness формата : Big
Идентификатор кодека : 2000
Продолжительность : 1 ч. 13 м.
Вид битрейта : Постоянный
Битрейт : 448 Кбит/сек
Каналы : 2 канала
Расположение каналов : Front: L R
Частота : 48,0 КГц
Битовая глубина : 16 бит
Метод сжатия : С потерями
Размер потока : 236 Мбайт (17%)
Выравнивание : Разделение по промежуткам
Продолжительность промежутка : 40 мс. (1,00 видеокадр)
Время предзагрузки промежутка : 500 мс.
Скриншоты:
Время раздачи:с 23:00 до 8:30
[Профиль] [ЛС]
Показать сообщения:    
Ответить на тему

Текущее время: 23-Фев 23:47

Часовой пояс: UTC + 3



Вы не можете начинать темы
Вы не можете отвечать на сообщения
Вы не можете редактировать свои сообщения
Вы не можете удалять свои сообщения
Вы не можете голосовать в опросах
Вы не можете прикреплять файлы к сообщениям
Вы не можете скачивать файлы