Сегодня идет свободное скачивание без начисления Download

Против всех правил (Виктор Демент) [2016, Комедия, HDTVRip]

Ответить на тему
 
Автор Сообщение

Bot ®

Стаж: 4 года 3 месяца

Сообщений: 1572

Создавать темы 08-Янв-2017 02:40

[Цитировать]

Против всех правил- Жанр: Комедия
Год выпуска: 2016
Продолжительность: 01:32:01-Режиссёр: Виктор Демент-В ролях: Алексей Макаров, Александр Яценко, Алексей Дмитриев, Маргарита Шубина, Анатолий Горячев, Тимур Боканча, Игорь Ливанов, Андрей Стоянов, Александр Самойленко, Полина Борунова, Валентина Шарыкина, Яна Середа, Игорь Марычев, Александр Ильин, Андрей Курносов, Владимир Виноградов, Сергей Серов-Описание: Полковником Колодой, завербованным иностранной разведкой, похищены секретные документы государственной важности. На самом деле, документы — фальшивка, дезинформация для зарубежных спецслужб. Слежка за предателем приводит оперативников в банк, где он оставляет документы в ячейке под номером 69. Чтобы установить, кто придет за ними, в банк под видом клиента приходит капитан Алексей Верещагин. По иронии судьбы, именно этот банк хочет ограбить доведенный до отчаяния кандидат наук и отец-одиночка Михаил Дрыскин. Увидев полицию, он с перепугу берет в заложники посетителей банка.- -Качество видео: HDTVRip
Формат видео: AVI
Видео: 720x400 (16:9), 25.000 fps, XviD build 73, 2035 Kbps, 0.28 Bits/Pixel
Аудио: 48 kHz, AC3 Dolby Digital, 2 ch, 192 Kbps-Релиз от: -
MediaInfo
General
Complete name : Downloads\Protiv.vsex.pravil.2015.HDTVRip.Files-x.avi
Format : AVI
Format/Info : Audio Video Interleave
File size : 1.37 GiB
Duration : 1h 27mn
Overall bit rate : 2 237 Kbps
Writing application : VirtualDubModRus 1.5.10.2 (build 2542/release)
Writing library : VirtualDubMod build 2542/release
Video #0
ID : 0
Format : MPEG-4 Visual
Format profile : Advanced Simple@L5
Format settings, BVOP : 1
Format settings, QPel : No
Format settings, GMC : No warppoints
Format settings, Matrix : Custom
Codec ID : XVID
Codec ID/Hint : XviD
Duration : 1h 27mn
Bit rate : 2 035 Kbps
Width : 720 pixels
Height : 400 pixels
Display aspect ratio : 16:9
Frame rate : 25.000 fps
Color space : YUV
Chroma subsampling : 4:2:0
Bit depth : 8 bits
Scan type : Progressive
Compression mode : Lossy
Bits/(Pixel*Frame) : 0.283
Stream size : 1.24 GiB (91%)
Writing library : XviD 73
Audio #1
ID : 1
Format : AC-3
Format/Info : Audio Coding 3
Mode extension : CM (complete main)
Format settings, Endianness : Big
Codec ID : 2000
Duration : 1h 27mn
Bit rate mode : Constant
Bit rate : 192 Kbps
Channel(s) : 2 channels
Channel positions : Front: L R
Sampling rate : 48.0 KHz
Bit depth : 16 bits
Compression mode : Lossy
Stream size : 120 MiB (9%)
Alignment : Split accross interleaves
Interleave, duration : 40 ms (1.00 video frame)
Interleave, preload duration : 500 ms
Скриншот c названием фильма
Скриншоты
[Профиль] [ЛС]
Показать сообщения:    
Ответить на тему

Текущее время: 12-Дек 11:37

Часовой пояс: UTC + 3



Вы не можете начинать темы
Вы не можете отвечать на сообщения
Вы не можете редактировать свои сообщения
Вы не можете удалять свои сообщения
Вы не можете голосовать в опросах
Вы не можете прикреплять файлы к сообщениям
Вы не можете скачивать файлы