Сегодня идет свободное скачивание без начисления Download

По главной улице с оркестром (1986) DVDRip

Ответить на тему
 
Автор Сообщение

Bot ®

Стаж: 1 год 7 месяцев

Сообщений: 6

Создавать темы 09-Янв-2017 14:03

[Цитировать]

По главной улице с оркестром (1986) DVDRip- Русское название: По главной улице с оркестром
Год выпуска: 1986
Жанр: Мелодрама, Комедия, Музыкальный
Выпущено: СССР, Мосфильм
Описание фильма:
Пятидесятилетний Василий Муравин приходит к выводу, что жизнь его не удалась - и убежден в том, что дома его ни во что не ставят. Забыты старые песни, заброшена преданная гитара, нет ни любви, ни взаимопонимания, ни справедливости. И тогда он берет в руки старую гитару и решает жить по-другому...
Режиссер: Петр Тодоровский
Актеры: Олег Борисов, Лидия Федосеева-Шукшина, Марина Зудина, Валентин Гафт, Игорь Костолевский, Валентина Теличкина, Олег Меньшиков, Людмила Максакова, Александр Лазарев, Светлана Немоляева, Сергей Жигунов, Александр Кузьмичев, Татьяна Агафонова
Продолжительность: 01:28:28

Видеокодек: DivX 5
Битрейт видео: ~2002 kb/s
Размер кадра: 704 х 528
Качество видео: DVDRip
Аудиокодек: AC3
Битрейт аудио: 192 kb/s, 2 ch
Дополнительная информация:
Петр Тодоровский
Петр Ефимович Тодоровский. Родился в городе Бобринец Кировоградской обл. Украинской ССР. Фронтовик. В 1954 окончил операторский ф-т ВГИКа (мастерская Б. Волчека). Среди операторских работ: "Весна на Заречной улице" (совм. с Р. Василевским), "Моя дочь", "Два Федора", "Жажда" (Вторая премия за операторскую работу на ВКФ в Минске-60). Снялся в фильме "Был месяц май", композитор и автор песен к ряду фильмов.
Народный артист РСФСР (1985). Заслуженный деятель искусств УССР (1967). Лауреат премии "Золотой Овен" - 1995 год.
Лауреат Всесоюзного кинофестиваля в номинации "Вторая премия за работу оператора" - 1960 год. Лауреат Венецианского кинофестиваля в номинации "Дебют" - 1965 год.
Премия "НИКА" в номинации "Лучший игровой фильм" - 1992 год. Премия "Кинотавр" в номинации "Главный приз Большого конкурса" - 1993 год. Премия "Киношок" в номинации "Премия за режиссуру" - 1995 год.
MediaInfo
Общее
Полное имя : По главной улице с оркестром.1986.XviD.DVDRip.[nnmclub.to].avi
Формат : AVI
Формат/Информация : Audio Video Interleave
Размер файла : 1,36 Гбайт
Продолжительность : 1 ч. 28 м.
Общий поток : 2204 Кбит/сек
Программа кодирования : VirtualDubModRus 1.5.10.2 (build 2542/release)
Библиотека кодирования : VirtualDubMod build 2542/release
Видео
Идентификатор : 0
Формат : MPEG-4 Visual
Параметр BVOP формата : 1
Параметр QPel формата : Нет
Параметр GMC формата : Без точки перехода
Параметр матрицы формата : Default (H.263)
Режим смешивания : Сжатый битовый поток
Идентификатор кодека : DX50
Идентификатор кодека/Подсказка : DivX 5
Продолжительность : 1 ч. 28 м.
Битрейт : 2002 Кбит/сек
Ширина : 704 пикселя
Высота : 528 пикселей
Соотношение сторон : 4:3
Частота кадров : 25,000 кадров/сек
Цветовое пространство : YUV
Субдискретизация насыщенности : 4:2:0
Битовая глубина : 8 бит
Тип развёртки : Прогрессивная
Метод сжатия : С потерями
Бит/(Пиксели*Кадры) : 0.215
Размер потока : 1,24 Гбайт (91%)
Библиотека кодирования : DivX 5.2.1 Alpha (UTC 2004-09-08)
Аудио
Идентификатор : 1
Формат : AC-3
Формат/Информация : Audio Coding 3
Расширение режима : CM (complete main)
Идентификатор кодека : 2000
Продолжительность : 1 ч. 28 м.
Вид битрейта : Постоянный
Битрейт : 192 Кбит/сек
Каналы : 2 канала
Расположение каналов : Front: L R
Частота : 48,0 КГц
Битовая глубина : 16 бит
Метод сжатия : С потерями
Размер потока : 121 Мбайт (9%)
Выравнивание : Соединение по промежуткам
Продолжительность промежутка : 40 мс. (1,00 видеокадр)
Время предзагрузки промежутка : 512 мс.
Скриншоты: Время раздачи: С 13:00 до 21:00 (до 5 скачавших)
[Профиль] [ЛС]
Показать сообщения:    
Ответить на тему

Текущее время: 28-Фев 12:58

Часовой пояс: UTC + 3



Вы не можете начинать темы
Вы не можете отвечать на сообщения
Вы не можете редактировать свои сообщения
Вы не можете удалять свои сообщения
Вы не можете голосовать в опросах
Вы не можете прикреплять файлы к сообщениям
Вы не можете скачивать файлы