Ведьма из Блэр: Новая глава / Blair Witch (Адам Вингард / Adam Wingard) [2016, США, Ужасы, триллер, BDRip] Dub

Ответить на тему
 
Автор Сообщение

Bot ®

Стаж: 4 года 1 месяц

Сообщений: 1496

Создавать темы 09-Янв-2017 17:21

[Цитировать]

Ведьма из Блэр: Новая глава / Blair Witch
Страна: США
Жанр: Ужасы, триллер
Год выпуска: 2016
Продолжительность: 01:29:11
Перевод: Профессиональный (дублированный)
Cубтитры: нет
Оригинальная аудиодорожка: нет-Режиссер: Адам Вингард / Adam Wingard-В ролях: Джеймс Аллен МакКьюн, Калли Эрнандес, Корбин Рейд, Брэндон Скотт, Уэс Робинсон, Вэлори Керри-Описание: После обнаружения загадочной видеозаписи у Джеймса появляется надежда найти свою пропавшую сестру. Вместе с группой друзей он решается отправиться в лес Блэк Хиллз, известный по легенде о ведьме из Блэр. Но никакая самая страшная легенда не сравнится с тем кошмаром, который ждет их в реальности.-Качество видео: BDRip | Blair Witch (2016) 1080p BD-Remux HDClub
Формат видео: AVI
Видео: 688x368 (1.87:1), 23.976 fps, XviD build 73 ~1030 kbps avg, 0.17 bit/pixel
Аудио: 48 kHz, MPEG Layer 3, 2 ch, ~128.00 kbps avg-Сэмпл-
MediaInfo
Код:
Format                      : AVI
Format/Info                 : Audio Video Interleave
File size                   : 745 MiB
Duration                    : 1 h 29 min
Overall bit rate            : 1 168 kb/s
Writing application         : VirtualDubMod 1.5.10.3 | www.virtualdub-fr.org || (build 2550/release)
Writing library             : VirtualDubMod build 2550/release
Video
ID                          : 0
Format                      : MPEG-4 Visual
Format profile              : Advanced Simple@L5
Format settings, BVOP       : 1
Format settings, QPel       : No
Format settings, GMC        : No warppoints
Format settings, Matrix     : Custom
Codec ID                    : XVID
Codec ID/Hint               : XviD
Duration                    : 1 h 29 min
Bit rate                    : 1 031 kb/s
Width                       : 688 pixels
Height                      : 368 pixels
Display aspect ratio        : 1.85:1
Frame rate                  : 23.976 (24000/1001) FPS
Color space                 : YUV
Chroma subsampling          : 4:2:0
Bit depth                   : 8 bits
Scan type                   : Progressive
Compression mode            : Lossy
Bits/(Pixel*Frame)          : 0.170
Stream size                 : 658 MiB (88%)
Writing library             : XviD 73
Audio
ID                          : 1
Format                      : MPEG Audio
Format version              : Version 1
Format profile              : Layer 3
Codec ID                    : 55
Codec ID/Hint               : MP3
Duration                    : 1 h 29 min
Bit rate mode               : Constant
Bit rate                    : 128 kb/s
Channel(s)                  : 2 channels
Sampling rate               : 48.0 kHz
Compression mode            : Lossy
Stream size                 : 81.7 MiB (11%)
Alignment                   : Aligned on interleaves
Interleave, duration        : 42  ms (1.00 video frame)
Interleave, preload duratio : 504  ms
Writing library             : LAME3.99r
Encoding settings           : -m s -V 4 -q 2 -lowpass 17 -b 128
Скриншоты
[Профиль] [ЛС]
Показать сообщения:    
Ответить на тему

Текущее время: 25-Сен 18:21

Часовой пояс: UTC + 3



Вы не можете начинать темы
Вы не можете отвечать на сообщения
Вы не можете редактировать свои сообщения
Вы не можете удалять свои сообщения
Вы не можете голосовать в опросах
Вы не можете прикреплять файлы к сообщениям
Вы не можете скачивать файлы