Сегодня идет свободное скачивание без начисления Download

Свет в океане / The Light Between Oceans (2016) BDRip 1080p | iTunes

Ответить на тему
 
Автор Сообщение

Bot ®

Стаж: 5 лет 1 месяц

Сообщений: 29662

Откуда: СССР

Создавать темы 11-Янв-2017 08:07

[Цитировать]

Информация о фильме
Название: Свет в океане
Оригинальное название: The Light Between Oceans
Год выхода: 2016
Жанр: Драма, мелодрама
Режиссер: Дерек Сиенфрэнс
В ролях: Майкл Фассбендер, Алисия Викандер, Рэйчел Вайз, Флоренс Клери, Джек Томпсон, Томас Унгер, Джейн Менелос, Гарри МакДональд, Энтони Хэйес, Бенедикт Харди
О фильме:
Вернувшийся с войны смотритель маяка Том встречает трепетную девушку по имени Изабель. Зародившаяся между ними любовь полностью преображает Изабель и возвращает опустошенному Тому веру в жизнь. Молодожены поселяются на уединенном острове, к берегу которого однажды пристает лодка с новорожденной девочкой. Супруги решают воспитать младенца как родную дочь, не представляя, насколько разрушительными будут последствия этого выбора.

Страна: Великобритания, Новая Зеландия, США
Студия: Amblin Entertainment, DreamWorks SKG
Продолжительность: 02:12:51
Перевод: Дублированный | iTunes
Файл
Качество: BDRip 1080p
Видео: MPEG-4 AVC, 1920x800, 11.9 Мbit/s, 23.976 fps
Звук:
Аудио #01: 48 kHz, AC3, 5.1, 384 Kbps | Дублированный | iTunes |
Аудио #02: 48 kHz, DTS, 5.1, 1510 kbps | Оригинал |
Субтитры: Русские (full, forced), английские
MI
Общее
Уникальный идентификатор : 244754881154339813576877167236941451032 (0xB8221351ACBE4BD9938349BB04A18F18)
Полное имя : F:VideoThe.Light.Between.Oceans.2016.D.BDRip.1080p.ExKinoRay.mkv
Формат : Matroska
Версия формата : Version 4 / Version 2
Размер файла : 12,8 Гбайт
Продолжительность : 2 ч. 12 м.
Общий поток : 13,8 Мбит/сек
Дата кодирования : UTC 2017-01-11 00:06:34
Программа кодирования : mkvmerge v8.3.0 ('Over the Horizon') 64bit
Библиотека кодирования : libebml v1.3.1 + libmatroska v1.4.2
Видео
Идентификатор : 1
Формат : AVC
Формат/Информация : Advanced Video Codec
Профиль формата : High@L4.1
Параметр CABAC формата : Да
Параметр ReFrames формата : 5 кадров
Идентификатор кодека : V_MPEG4/ISO/AVC
Продолжительность : 2 ч. 12 м.
Битрейт : 11,9 Мбит/сек
Ширина : 1920 пикселей
Высота : 800 пикселей
Соотношение сторон : 2,40:1
Режим частоты кадров : Постоянный
Частота кадров : 23,976 (24000/1001) кадра/сек
Цветовое пространство : YUV
Субдискретизация насыщенности : 4:2:0
Битовая глубина : 8 бит
Тип развёртки : Прогрессивная
Бит/(Пиксели*Кадры) : 0.322
Размер потока : 11,0 Гбайт (86%)
Библиотека кодирования : x264 core 148 r2699+6+41 29a38aa Yuuki [8-bit@4:2:0 X86_64][GCC 5.3.0]
Настройки программы : cabac=1 / ref=5 / deblock=1:-3:-3 / analyse=0x3:0x113 / me=umh / subme=11 / psy=1 / fade_compensate=0.00 / psy_rd=1.00:0.05 / mixed_ref=1 / me_range=32 / chroma_me=1 / trellis=2 / 8x8dct=1 / cqm=0 / deadzone=21,11 / fast_pskip=0 / chroma_qp_offset=-2 / threads=24 / lookahead_threads=4 / sliced_threads=0 / nr=0 / decimate=1 / interlaced=0 / bluray_compat=0 / constrained_intra=0 / fgo=0 / bframes=8 / b_pyramid=2 / b_adapt=2 / b_bias=0 / direct=3 / weightb=1 / open_gop=0 / weightp=2 / keyint=250 / keyint_min=23 / scenecut=40 / intra_refresh=0 / rc_lookahead=40 / rc=crf / mbtree=0 / crf=18.6000 / qcomp=0.60 / qpmin=0:0:0 / qpmax=69:69:69 / qpstep=4 / vbv_maxrate=50000 / vbv_bufsize=40000 / crf_max=0.0 / nal_hrd=none / filler=0 / ip_ratio=1.40 / pb_ratio=1.30 / aq=3:0.90
Язык : English
Default : Да
Forced : Нет
Аудио #1
Идентификатор : 2
Формат : AC-3
Формат/Информация : Audio Coding 3
Расширение режима : CM (complete main)
Параметр Endianness формата : Big
Идентификатор кодека : A_AC3
Продолжительность : 2 ч. 12 м.
Вид битрейта : Постоянный
Битрейт : 384 Кбит/сек
Каналы : 6 каналов
Расположение каналов : Front: L C R, Side: L R, LFE
Частота : 48,0 КГц
Частота кадров : 31,250 кадров/сек (1536 spf)
Битовая глубина : 16 бит
Метод сжатия : С потерями
Размер потока : 365 Мбайт (3%)
Язык : Russian
Default : Да
Forced : Нет
Аудио #2
Идентификатор : 3
Формат : DTS
Формат/Информация : Digital Theater Systems
Режим : 16
Параметр Endianness формата : Big
Идентификатор кодека : A_DTS
Продолжительность : 2 ч. 12 м.
Вид битрейта : Постоянный
Битрейт : 1509 Кбит/сек
Каналы : 6 каналов
Расположение каналов : Front: L C R, Side: L R, LFE
Частота : 48,0 КГц
Частота кадров : 93,750 кадра/сек (512 spf)
Битовая глубина : 24 бит
Метод сжатия : С потерями
Размер потока : 1,40 Гбайт (11%)
Язык : English
Default : Нет
Forced : Нет
Текст #1
Идентификатор : 4
Формат : UTF-8
Идентификатор кодека : S_TEXT/UTF8
Идентификатор кодека/Информация : UTF-8 Plain Text
Продолжительность : 31 м. 28 с.
Битрейт : 2 бит/сек
Count of elements : 6
Размер потока : 489 байт (0%)
Заголовок : Forced [iTunes]
Язык : Russian
Default : Да
Forced : Нет
Текст #2
Идентификатор : 5
Формат : UTF-8
Идентификатор кодека : S_TEXT/UTF8
Идентификатор кодека/Информация : UTF-8 Plain Text
Продолжительность : 2 ч. 5 м.
Битрейт : 62 бит/сек
Count of elements : 1293
Размер потока : 57,0 Кбайт (0%)
Заголовок : Full [iTunes]
Язык : Russian
Default : Нет
Forced : Нет
Текст #3
Идентификатор : 6
Формат : UTF-8
Идентификатор кодека : S_TEXT/UTF8
Идентификатор кодека/Информация : UTF-8 Plain Text
Продолжительность : 2 ч. 6 м.
Битрейт : 47 бит/сек
Count of elements : 1634
Размер потока : 44,1 Кбайт (0%)
Язык : English
Default : Нет
Forced : Нет
Меню
00:00:00.000 : en:00:00:00.000
00:04:55.128 : en:00:04:55.128
00:11:38.531 : en:00:11:38.531
00:17:30.007 : en:00:17:30.007
00:23:07.469 : en:00:23:07.469
00:29:35.816 : en:00:29:35.816
00:35:21.953 : en:00:35:21.953
00:42:35.678 : en:00:42:35.678
00:49:51.822 : en:00:49:51.822
00:55:14.186 : en:00:55:14.186
00:59:26.062 : en:00:59:26.062
01:05:48.027 : en:01:05:48.027
01:10:52.957 : en:01:10:52.957
01:13:14.724 : en:01:13:14.724
01:22:34.032 : en:01:22:34.032
01:31:42.956 : en:01:31:42.956
01:42:29.101 : en:01:42:29.101
01:51:31.018 : en:01:51:31.018
02:01:29.324 : en:02:01:29.324
02:07:08.621 : en:02:07:08.621
[Профиль] [ЛС]
Показать сообщения:    
Ответить на тему

Текущее время: 23-Июн 06:27

Часовой пояс: UTC + 3



Вы не можете начинать темы
Вы не можете отвечать на сообщения
Вы не можете редактировать свои сообщения
Вы не можете удалять свои сообщения
Вы не можете голосовать в опросах
Вы не можете прикреплять файлы к сообщениям
Вы не можете скачивать файлы