Сегодня идет свободное скачивание без начисления Download

Светская жизнь / Café Society (2016) BDRip 1080p | Лицензия

Ответить на тему
 
Автор Сообщение

Bot ®

Стаж: 4 года 11 месяцев

Сообщений: 28219

Откуда: СССР

Создавать темы 11-Янв-2017 16:22

[Цитировать]

Информация о фильме
Название: Светская жизнь
Оригинальное название: Café Society
Год выпуска: 2016
Жанр: Драма, мелодрама, комедия
Выпущено: США, FilmNation Entertainment, Gravier Productions, Perdido Productions
Режиссер: Вуди Аллен
В ролях: Дженни Берлин, Стив Карелл, Джесси Айзенберг, Кристен Стюарт, Блэйк Лайвли, Паркер Поузи, Кори Столл, Кен Стотт, Анна Кэмп, Пол Шнайдер
О фильме: Вуди Аллен! Нестареющий и уверенный в себе режиссёр, дарящий нам комфорт для души и шампанское для радости. Кто сегодня так нежно, мило, иронично, сексуально и с невесомым шлейфом грусти преподнесёт нам блеск и красоту жизни, беззаботность и буйство молодости, роскошь и глянец зрелости с его непринуждённой манерой и изысканностью стиля. Наслаждаешься каждым кадром, смакуешь диалоги и торопишься на седьмое небо в счастии видеть жизнь его глазами и с, присущим ему, оптимистическим сарказмом: "Жизнь - это комедия, написанная, однако, писателем-садистом".

Продолжительность: 01:36:06
Перевод: Дублированный
Субтитры: Английские
Файл
Качество: BDRip (1080p)
Видео: MPEG-4 AVC, 10.5 Мбит/с, 1920x960
Аудио #1: Русский (AC3, 6 ch, 640 Кбит/с)
Аудио #2: Английский (AC3, 5 ch, 448 Кбит/с)
МедиаИнфо
Формат : Matroska
Версия формата : Version 2
Размер файла : 7,76 Гбайт
Продолжительность : 1 ч. 36 м.
Общий поток : 11,6 Мбит/сек
Название фильма : ~V ad~
Дата кодирования : UTC 2017-01-11 11:17:05
Программа кодирования : mkvmerge v6.5.0 ('Isn't she lovely') built on Oct 20 2013 12:50:05
Библиотека кодирования : libebml v1.3.0 + libmatroska v1.4.1
Обложка : Yes
Attachments : cover.jpg
Видео
Идентификатор : 1
Формат : AVC
Формат/Информация : Advanced Video Codec
Профиль формата : High@L4.1
Параметр CABAC формата : Да
Параметр ReFrames формата : 4 кадра
Идентификатор кодека : V_MPEG4/ISO/AVC
Продолжительность : 1 ч. 36 м.
Битрейт : 10,5 Мбит/сек
Ширина : 1920 пикселей
Высота : 960 пикселей
Соотношение сторон : 2,000
Режим частоты кадров : Постоянный
Частота кадров : 23,976 (24000/1001) кадра/сек
Цветовое пространство : YUV
Субдискретизация насыщенности : 4:2:0
Битовая глубина : 8 бит
Тип развёртки : Прогрессивная
Бит/(Пиксели*Кадры) : 0.237
Размер потока : 6,88 Гбайт (89%)
Заголовок : ~V~
Библиотека кодирования : x264 core 148 r2705 3f5ed56
Настройки программы : cabac=1 / ref=4 / deblock=1:-3:-3 / analyse=0x3:0x133 / me=umh / subme=11 / psy=1 / psy_rd=1.00:0.00 / mixed_ref=1 / me_range=48 / chroma_me=1 / trellis=2 / 8x8dct=1 / cqm=0 / deadzone=21,11 / fast_pskip=0 / chroma_qp_offset=-2 / threads=12 / lookahead_threads=1 / sliced_threads=0 / nr=0 / decimate=0 / interlaced=0 / bluray_compat=0 / constrained_intra=0 / bframes=9 / b_pyramid=2 / b_adapt=2 / b_bias=0 / direct=2 / weightb=1 / open_gop=0 / weightp=2 / keyint=240 / keyint_min=23 / scenecut=40 / intra_refresh=0 / rc=2pass / mbtree=0 / bitrate=10475 / ratetol=1.0 / qcomp=0.60 / qpmin=0 / qpmax=69 / qpstep=4 / cplxblur=20.0 / qblur=0.5 / ip_ratio=1.30 / pb_ratio=1.30 / aq=3:0.90
Язык : English
Default : Да
Forced : Нет
Аудио #1
Идентификатор : 2
Формат : AC-3
Формат/Информация : Audio Coding 3
Расширение режима : CM (complete main)
Параметр Endianness формата : Big
Идентификатор кодека : A_AC3
Продолжительность : 1 ч. 36 м.
Вид битрейта : Постоянный
Битрейт : 640 Кбит/сек
Каналы : 6 каналов
Расположение каналов : Front: L C R, Side: L R, LFE
Частота : 48,0 КГц
Частота кадров : 31,250 кадров/сек (1536 spf)
Метод сжатия : С потерями
Размер потока : 440 Мбайт (6%)
Язык : Russian
Default : Да
Forced : Да
Аудио #2
Идентификатор : 3
Формат : AC-3
Формат/Информация : Audio Coding 3
Расширение режима : CM (complete main)
Параметр Endianness формата : Big
Идентификатор кодека : A_AC3
Продолжительность : 1 ч. 36 м.
Вид битрейта : Постоянный
Битрейт : 448 Кбит/сек
Каналы : 5 каналов
Расположение каналов : Front: L C R, Side: L R
Частота : 48,0 КГц
Частота кадров : 31,250 кадров/сек (1536 spf)
Метод сжатия : С потерями
Размер потока : 308 Мбайт (4%)
Язык : English
Default : Нет
Forced : Нет
Текст
Идентификатор : 4
Формат : UTF-8
Идентификатор кодека : S_TEXT/UTF8
Идентификатор кодека/Информация : UTF-8 Plain Text
Заголовок : English
Язык : English
Default : Нет
Forced : Нет
Меню
00:00:00.000 : en:Chapter 01
00:08:35.765 : en:Chapter 02
00:16:39.790 : en:Chapter 03
00:26:28.461 : en:Chapter 04
00:32:30.990 : en:Chapter 05
00:43:12.381 : en:Chapter 06
00:54:03.740 : en:Chapter 07
01:02:38.629 : en:Chapter 08
01:10:05.618 : en:Chapter 09
01:14:40.767 : en:Chapter 10
01:20:45.924 : en:Chapter 11
01:31:57.178 : en:Chapter 12
х264
x264 [info]: frame I:811 Avg QP:13.60 size:275065
x264 [info]: frame P:29271 Avg QP:16.85 size:112444
x264 [info]: frame B:108153 Avg QP:17.33 size: 37311


Сэмпл
[Профиль] [ЛС]
Показать сообщения:    
Ответить на тему

Текущее время: 30-Апр 21:38

Часовой пояс: UTC + 3



Вы не можете начинать темы
Вы не можете отвечать на сообщения
Вы не можете редактировать свои сообщения
Вы не можете удалять свои сообщения
Вы не можете голосовать в опросах
Вы не можете прикреплять файлы к сообщениям
Вы не можете скачивать файлы