Сегодня идет свободное скачивание без начисления Download

Матрица: Трилогия / The Matrix: Trilogy (1999-2003) [720p] HDTVRip

Ответить на тему
 
Автор Сообщение

Bot ®

Стаж: 2 года 2 месяца

Сообщений: 5

Создавать темы 11-Янв-2017 16:32

[Цитировать]



Русское название: Матрица: Трилогия
Оригинальное название: The Matrix: Trilogy
Год выпуска: 1999, 2003
Жанр: Фантастика, боевик, приключения
Режиссер: Энди Вачовски / Ларри Вачовски
Продолжительность: 02:16:15 / 02:18:13 / 02:09:12
Матрица / The Matrix
Матрица / The Matrix (1999) [720p] HDTVRip- Русское название: Матрица
Оригинальное название: The Matrix
Год выпуска: 1999
Жанр: Фантастика, боевик, приключения
Перевод:
  • Дублированный
  • Авторский одноголосый (А.Гаврилов)
Субтитры:
  • Русские
  • Английские
-Режиссер: Энди Вачовски, Ларри Вачовски
Актеры: Киану Ривз, Лоуренс Фишборн, Кэрри-Энн Мосс, Хьюго Уивинг, Джо Пантолиано, Глория Фостер, Маркус Чонг, Джулиан Араханга, Мэтт Доран, Белинда МакКлори, Моника Беллуччи, Ламбер Вильсон, Энтони Вон, Гарри Дж. Ленникс, Рэндолл Дак Ким, Брюс Спенс, Джада Пинкетт Смит, Хэролд Перрино, Хельмут Бакайтис
Описание фильма:
Мир Матрицы — это иллюзия, существующая только в бесконечном сне обреченного человечества. Холодный мир будущего, в котором люди — всего лишь батарейки в компьютерных системах.-
Премьера (мир): 31 марта 1999, ...
Премьера (РФ): 14 октября 1999
Релиз на Blu-Ray: 27 января 2009, «Юниверсал Пикчерс Рус», ...
Релиз на DVD: 24 февраля 2011, «CP-Digital», ...-Продолжительность: 02:16:15
Качество видео: HDTVRip 720p
Контейнер: MKV
Видеокодек: MPEG-4 AVC / H.264
Битрейт видео: 5250 kbps
Размер кадра: 1272x720
Аудио 1: [Русский] АС3, 6 ch, 640 kbps |Дублированный|
Аудио 2: [Русский] DTS, 6 ch, 755 kbps |Авторский одноголосый,А.Гаврилов|
Аудио 3: [Английский] DTS, 6 ch, 1510 kbps-
MI
Код:
Общее
Уникальный идентификатор                 : 172331190279336759580313464907175694646 (0x81A5C7AC2F662632BDAAAE280CB21136)
Полное имя                               : F:\Загрузки с торрена\Matrica.Trilogija.1999.2003.x264.HDTVRip.720p_BigGeorge\Matrica.1999.x264.HDTVRip.720p_BigGeorge.mkv
Формат                                   : Matroska
Версия формата                           : Version 2
Размер файла                             : 7,92 Гбайт
Продолжительность                        : 2 ч. 16 м.
Общий поток                              : 8320 Кбит/сек
Дата кодирования                         : UTC 2012-04-08 11:01:57
Программа кодирования                    : mkvmerge v5.4.0 ('Piper') built on Mar 10 2012 13:34:39
Библиотека кодирования                   : libebml v1.2.3 + libmatroska v1.3.0
Видео
Идентификатор                            : 1
Формат                                   : AVC
Формат/Информация                        : Advanced Video Codec
Профиль формата                          : High@L4.1
Параметр CABAC формата                   : Да
Параметр ReFrames формата                : 8 кадров
Идентификатор кодека                     : V_MPEG4/ISO/AVC
Продолжительность                        : 2 ч. 16 м.
Битрейт                                  : 5250 Кбит/сек
Номинальный битрейт                      : 5687 Кбит/сек
Ширина                                   : 1272 пикселя
Высота                                   : 720 пикселей
Соотношение сторон                       : 16:9
Частота кадров                           : 23,976 кадра/сек
Цветовое пространство                    : YUV
Субдискретизация насыщенности            : 4:2:0
Битовая глубина                          : 8 бит
Тип развёртки                            : Прогрессивная
Бит/(Пиксели*Кадры)                      : 0.239
Размер потока                            : 5,00 Гбайт (63%)
Библиотека кодирования                   : x264 core 116 r2044 392e762
Настройки программы                      : cabac=1 / ref=8 / deblock=1:-2:-2 / analyse=0x3:0x133 / me=umh / subme=11 / psy=1 / psy_rd=1.00:0.00 / mixed_ref=1 / me_range=48 / chroma_me=1 / trellis=2 / 8x8dct=1 / cqm=0 / deadzone=21,11 / fast_pskip=0 / chroma_qp_offset=-2 / threads=6 / sliced_threads=0 / nr=0 / decimate=1 / interlaced=0 / bluray_compat=0 / constrained_intra=0 / bframes=8 / b_pyramid=2 / b_adapt=2 / b_bias=0 / direct=3 / weightb=1 / open_gop=0 / weightp=2 / keyint=250 / keyint_min=23 / scenecut=40 / intra_refresh=0 / rc=2pass / mbtree=0 / bitrate=5687 / ratetol=1.0 / qcomp=0.60 / qpmin=0 / qpmax=69 / qpstep=4 / cplxblur=20.0 / qblur=0.5 / ip_ratio=1.40 / pb_ratio=1.30 / aq=2:1.00
Язык                                     : English
Default                                  : Да
Forced                                   : Нет
Аудио #1
Идентификатор                            : 2
Формат                                   : AC-3
Формат/Информация                        : Audio Coding 3
Расширение режима                        : CM (complete main)
Идентификатор кодека                     : A_AC3
Продолжительность                        : 2 ч. 16 м.
Вид битрейта                             : Постоянный
Битрейт                                  : 640 Кбит/сек
Каналы                                   : 6 каналов
Расположение каналов                     : Front: L C R, Side: L R, LFE
Частота                                  : 48,0 КГц
Битовая глубина                          : 16 бит
Метод сжатия                             : С потерями
Размер потока                            : 624 Мбайт (8%)
Заголовок                                : Дубляж
Язык                                     : Russian
Default                                  : Да
Forced                                   : Нет
Аудио #2
Идентификатор                            : 3
Формат                                   : DTS
Формат/Информация                        : Digital Theater Systems
Идентификатор кодека                     : A_DTS
Продолжительность                        : 2 ч. 16 м.
Вид битрейта                             : Постоянный
Битрейт                                  : 755 Кбит/сек
Каналы                                   : 6 каналов
Расположение каналов                     : Front: L C R, Side: L R, LFE
Частота                                  : 48,0 КГц
Битовая глубина                          : 24 бит
Метод сжатия                             : С потерями
Задержка видео                           : 11 мс.
Размер потока                            : 735 Мбайт (9%)
Заголовок                                : Авторский одноголосый (Гаврилов)
Язык                                     : Russian
Default                                  : Нет
Forced                                   : Нет
Аудио #3
Идентификатор                            : 4
Формат                                   : DTS
Формат/Информация                        : Digital Theater Systems
Идентификатор кодека                     : A_DTS
Продолжительность                        : 2 ч. 16 м.
Вид битрейта                             : Постоянный
Битрейт                                  : 1510 Кбит/сек
Каналы                                   : 6 каналов
Расположение каналов                     : Front: L C R, Side: L R, LFE
Частота                                  : 48,0 КГц
Битовая глубина                          : 24 бит
Метод сжатия                             : С потерями
Задержка видео                           : 11 мс.
Размер потока                            : 1,44 Гбайт (18%)
Заголовок                                : Оригинал
Язык                                     : English
Default                                  : Нет
Forced                                   : Нет
Текст #1
Идентификатор                            : 5
Формат                                   : UTF-8
Идентификатор кодека                     : S_TEXT/UTF8
Идентификатор кодека/Информация          : UTF-8 Plain Text
Язык                                     : Russian
Default                                  : Нет
Forced                                   : Нет
Текст #2
Идентификатор                            : 6
Формат                                   : UTF-8
Идентификатор кодека                     : S_TEXT/UTF8
Идентификатор кодека/Информация          : UTF-8 Plain Text
Язык                                     : English
Default                                  : Нет
Forced                                   : Нет
Скриншоты:

Матрица: Перезагрузка / The Matrix: Reloaded

Матрица: Перезагрузка / The Matrix: Reloaded (2003) [720p] HDTVRip- Русское название: Матрица: Перезагрузка
Оригинальное название: The Matrix: Reloaded
Год выпуска: 2003
Жанр: Фантастика, боевик, приключения
Перевод:
  • Дублированный
  • Авторский одноголосый (А.Гаврилов)
Субтитры:
  • Русские
  • Английские
-Режиссер: Энди Вачовски, Ларри Вачовски
Актеры: Лоуренс Фишборн, Киану Ривз, Хьюго Уивинг, Моника Белуччи, Джада Пинкетт Смит, Харольд Перрино-мл., Ламбер Уилсон, Кэрри-Энн Мосс, Хэрри Дж. Ленникс, Клэйтон Уотсон, Дэниэл Бернхардт, Мэтт МакКолм, Кристин Ану
Описание фильма:
Борцы за свободу Нео, Тринити и Морфеус продолжают руководить восстанием людей против Армии Машин. Для уничтожения системы репрессий и эксплуатации они вынуждены прибегнуть не только к арсеналу превосходного оружия, но и к своим выдающимся навыкам. Участие в миссии по спасению человеческой расы от ее полного истребления приносит им более глубокое понимание конструкции Матрицы и осознание центральной роли Нео в судьбе человечества.-
Премьера (мир): 7 мая 2003, ...
Премьера (РФ): 21 мая 2003, «Каро-Премьер»
Релиз на Blu-Ray: 27 января 2009, «Юниверсал Пикчерс Рус», ...
Релиз на DVD: 24 февраля 2011, «CP-Digital», ...-Продолжительность: 02:18:13
Качество видео: HDTVRip 720p
Контейнер: MKV
Видеокодек: MPEG-4 AVC / H.264
Битрейт видео: 5396 kbps
Размер кадра: 1280x716
Аудио 1: [Русский] АС3, 6 ch, 640 kbps |Дублированный|
Аудио 2: [Русский] DTS, 6 ch, 755 kbps |Авторский одноголосый,А.Гаврилов|
Аудио 3: [Английский] DTS, 6 ch, 1510 kbps-
MI
Код:
Общее
Уникальный идентификатор                 : 254527776370525129703904744578958392702 (0xBF7C4441250B0518933B995700827D7E)
Полное имя                               : F:\Загрузки с торрена\Matrica.Trilogija.1999.2003.x264.HDTVRip.720p_BigGeorge\Matrica.Perezagruzka.2003.x264.HDTVRip.720p_BigGeorge.mkv
Формат                                   : Matroska
Версия формата                           : Version 2
Размер файла                             : 8,02 Гбайт
Продолжительность                        : 2 ч. 18 м.
Общий поток                              : 8302 Кбит/сек
Дата кодирования                         : UTC 2012-04-08 10:41:46
Программа кодирования                    : mkvmerge v5.4.0 ('Piper') built on Mar 10 2012 13:34:39
Библиотека кодирования                   : libebml v1.2.3 + libmatroska v1.3.0
Видео
Идентификатор                            : 1
Формат                                   : AVC
Формат/Информация                        : Advanced Video Codec
Профиль формата                          : High@L4.1
Параметр CABAC формата                   : Да
Параметр ReFrames формата                : 8 кадров
Идентификатор кодека                     : V_MPEG4/ISO/AVC
Продолжительность                        : 2 ч. 18 м.
Битрейт                                  : 5396 Кбит/сек
Ширина                                   : 1280 пикселей
Высота                                   : 716 пикселей
Соотношение сторон                       : 16:9
Частота кадров                           : 23,976 кадра/сек
Цветовое пространство                    : YUV
Субдискретизация насыщенности            : 4:2:0
Битовая глубина                          : 8 бит
Тип развёртки                            : Прогрессивная
Бит/(Пиксели*Кадры)                      : 0.246
Размер потока                            : 5,05 Гбайт (63%)
Библиотека кодирования                   : x264 core 116 r2044 392e762
Настройки программы                      : cabac=1 / ref=8 / deblock=1:-2:-2 / analyse=0x3:0x133 / me=umh / subme=11 / psy=1 / psy_rd=1.00:0.00 / mixed_ref=1 / me_range=48 / chroma_me=1 / trellis=2 / 8x8dct=1 / cqm=0 / deadzone=21,11 / fast_pskip=0 / chroma_qp_offset=-2 / threads=6 / sliced_threads=0 / nr=0 / decimate=1 / interlaced=0 / bluray_compat=0 / constrained_intra=0 / bframes=8 / b_pyramid=2 / b_adapt=2 / b_bias=0 / direct=3 / weightb=1 / open_gop=0 / weightp=2 / keyint=250 / keyint_min=23 / scenecut=40 / intra_refresh=0 / rc=2pass / mbtree=0 / bitrate=5396 / ratetol=1.0 / qcomp=0.60 / qpmin=0 / qpmax=69 / qpstep=4 / cplxblur=20.0 / qblur=0.5 / ip_ratio=1.40 / pb_ratio=1.30 / aq=2:1.00
Язык                                     : English
Default                                  : Да
Forced                                   : Нет
Аудио #1
Идентификатор                            : 2
Формат                                   : AC-3
Формат/Информация                        : Audio Coding 3
Расширение режима                        : CM (complete main)
Идентификатор кодека                     : A_AC3
Продолжительность                        : 2 ч. 18 м.
Вид битрейта                             : Постоянный
Битрейт                                  : 640 Кбит/сек
Каналы                                   : 6 каналов
Расположение каналов                     : Front: L C R, Side: L R, LFE
Частота                                  : 48,0 КГц
Битовая глубина                          : 16 бит
Метод сжатия                             : С потерями
Задержка видео                           : 28 мс.
Размер потока                            : 633 Мбайт (8%)
Заголовок                                : Дубляж
Язык                                     : Russian
Default                                  : Да
Forced                                   : Нет
Аудио #2
Идентификатор                            : 3
Формат                                   : DTS
Формат/Информация                        : Digital Theater Systems
Идентификатор кодека                     : A_DTS
Продолжительность                        : 2 ч. 18 м.
Вид битрейта                             : Постоянный
Битрейт                                  : 755 Кбит/сек
Каналы                                   : 6 каналов
Расположение каналов                     : Front: L C R, Side: L R, LFE
Частота                                  : 48,0 КГц
Битовая глубина                          : 24 бит
Метод сжатия                             : С потерями
Задержка видео                           : 6 мс.
Размер потока                            : 746 Мбайт (9%)
Заголовок                                : Авторский одноголосый (Гаврилов)
Язык                                     : Russian
Default                                  : Нет
Forced                                   : Нет
Аудио #3
Идентификатор                            : 4
Формат                                   : DTS
Формат/Информация                        : Digital Theater Systems
Идентификатор кодека                     : A_DTS
Продолжительность                        : 2 ч. 18 м.
Вид битрейта                             : Постоянный
Битрейт                                  : 1510 Кбит/сек
Каналы                                   : 6 каналов
Расположение каналов                     : Front: L C R, Side: L R, LFE
Частота                                  : 48,0 КГц
Битовая глубина                          : 24 бит
Метод сжатия                             : С потерями
Задержка видео                           : 6 мс.
Размер потока                            : 1,46 Гбайт (18%)
Заголовок                                : Оригинал
Язык                                     : English
Default                                  : Нет
Forced                                   : Нет
Текст #1
Идентификатор                            : 5
Формат                                   : UTF-8
Идентификатор кодека                     : S_TEXT/UTF8
Идентификатор кодека/Информация          : UTF-8 Plain Text
Язык                                     : Russian
Default                                  : Нет
Forced                                   : Нет
Текст #2
Идентификатор                            : 6
Формат                                   : UTF-8
Идентификатор кодека                     : S_TEXT/UTF8
Идентификатор кодека/Информация          : UTF-8 Plain Text
Язык                                     : English
Default                                  : Нет
Forced                                   : Нет
Скриншоты:

Матрица: Революция / The Matrix: Revolutions

Матрица: Революция / The Matrix: Revolutions (2003) [720p] HDTVRip- Русское название: Матрица: Революция
Оригинальное название: The Matrix: Revolutions
Год выпуска: 2003
Жанр: Фантастика, боевик, приключения
Перевод:
  • Дублированный
  • Авторский одноголосый (А.Гаврилов)
Субтитры:
  • Русские
  • Английские
-Режиссер: Энди Вачовски, Ларри Вачовски
Актеры: Лоуренс Фишборн, Киану Ривз, Хьюго Уивинг, Брюс Спенс, Моника Белуччи, Джада Пинкетт Смит, Натаниэль Лис, Ламбер Уилсон, Харольд Перрино-мл., Джина Торрес, Энтони Зерб, Кэрри-Энн Мосс, Хэрри Дж. Ленникс, Роберт Маммон, Клэйтон Уотсон, Эсси Дэвис, Энтони Вонг, Дэвид Робертс, Иэн Блисс, Мэри Элис, Робин Невин, Руперт Рид, Хельмут Бакайтис
Описание фильма:
Пока армия Машин пытается уничтожить Зион, его жители из последних сил держат оборону. Но удастся ли им предотвратить полное вторжение в город кишащей орды беспощадных машин до того, как Нео соберет все свои силы и положит конец войне?-
Премьера (мир): 27 октября 2003, ...
Премьера (РФ): 5 ноября 2003, «Каро-Премьер»
Релиз на Blu-Ray: 27 января 2009, «Юниверсал Пикчерс Рус», ...
Релиз на DVD: 24 февраля 2011, «CP-Digital», ...-Продолжительность: 02:09:12
Качество видео: HDTVRip 720p
Контейнер: MKV
Видеокодек: MPEG-4 AVC / H.264
Битрейт видео: 5593 kbps
Размер кадра: 1280x716
Аудио 1: [Русский] АС3, 6 ch, 640 kbps |Дублированный|
Аудио 2: [Русский] DTS, 6 ch, 755 kbps |Авторский одноголосый,А.Гаврилов|
Аудио 3: [Английский] DTS, 6 ch, 1510 kbps-
MI
Код:
Общее
Уникальный идентификатор                 : 218779101684754181489989862711348311004 (0xA49752832CF417C3AEA71C0EAD7633DC)
Полное имя                               : F:\Загрузки с торрена\Matrica.Trilogija.1999.2003.x264.HDTVRip.720p_BigGeorge\Matrica.Revoljucija.2003.x264.HDTVRip.720p_BigGeorge.mkv
Формат                                   : Matroska
Версия формата                           : Version 2
Размер файла                             : 7,67 Гбайт
Продолжительность                        : 2 ч. 9 м.
Общий поток                              : 8498 Кбит/сек
Дата кодирования                         : UTC 2012-04-08 10:15:59
Программа кодирования                    : mkvmerge v5.4.0 ('Piper') built on Mar 10 2012 13:34:39
Библиотека кодирования                   : libebml v1.2.3 + libmatroska v1.3.0
Видео
Идентификатор                            : 1
Формат                                   : AVC
Формат/Информация                        : Advanced Video Codec
Профиль формата                          : High@L4.1
Параметр CABAC формата                   : Да
Параметр ReFrames формата                : 8 кадров
Идентификатор кодека                     : V_MPEG4/ISO/AVC
Продолжительность                        : 2 ч. 9 м.
Битрейт                                  : 5593 Кбит/сек
Ширина                                   : 1280 пикселей
Высота                                   : 716 пикселей
Соотношение сторон                       : 16:9
Частота кадров                           : 23,976 кадра/сек
Цветовое пространство                    : YUV
Субдискретизация насыщенности            : 4:2:0
Битовая глубина                          : 8 бит
Тип развёртки                            : Прогрессивная
Бит/(Пиксели*Кадры)                      : 0.255
Размер потока                            : 4,90 Гбайт (64%)
Библиотека кодирования                   : x264 core 116 r2044 392e762
Настройки программы                      : cabac=1 / ref=8 / deblock=1:-2:-2 / analyse=0x3:0x133 / me=umh / subme=11 / psy=1 / psy_rd=1.00:0.00 / mixed_ref=1 / me_range=48 / chroma_me=1 / trellis=2 / 8x8dct=1 / cqm=0 / deadzone=21,11 / fast_pskip=0 / chroma_qp_offset=-2 / threads=6 / sliced_threads=0 / nr=0 / decimate=1 / interlaced=0 / bluray_compat=0 / constrained_intra=0 / bframes=8 / b_pyramid=2 / b_adapt=2 / b_bias=0 / direct=3 / weightb=1 / open_gop=0 / weightp=2 / keyint=250 / keyint_min=23 / scenecut=40 / intra_refresh=0 / rc=2pass / mbtree=0 / bitrate=5593 / ratetol=1.0 / qcomp=0.60 / qpmin=0 / qpmax=69 / qpstep=4 / cplxblur=20.0 / qblur=0.5 / ip_ratio=1.40 / pb_ratio=1.30 / aq=2:1.00
Язык                                     : English
Default                                  : Да
Forced                                   : Нет
Аудио #1
Идентификатор                            : 2
Формат                                   : AC-3
Формат/Информация                        : Audio Coding 3
Расширение режима                        : CM (complete main)
Идентификатор кодека                     : A_AC3
Продолжительность                        : 2 ч. 9 м.
Вид битрейта                             : Постоянный
Битрейт                                  : 640 Кбит/сек
Каналы                                   : 6 каналов
Расположение каналов                     : Front: L C R, Side: L R, LFE
Частота                                  : 48,0 КГц
Битовая глубина                          : 16 бит
Метод сжатия                             : С потерями
Задержка видео                           : 6 мс.
Размер потока                            : 592 Мбайт (8%)
Заголовок                                : Дубляж
Язык                                     : Russian
Default                                  : Да
Forced                                   : Нет
Аудио #2
Идентификатор                            : 3
Формат                                   : DTS
Формат/Информация                        : Digital Theater Systems
Идентификатор кодека                     : A_DTS
Продолжительность                        : 2 ч. 9 м.
Вид битрейта                             : Постоянный
Битрейт                                  : 755 Кбит/сек
Каналы                                   : 6 каналов
Расположение каналов                     : Front: L C R, Side: L R, LFE
Частота                                  : 48,0 КГц
Битовая глубина                          : 24 бит
Метод сжатия                             : С потерями
Задержка видео                           : 17 мс.
Размер потока                            : 697 Мбайт (9%)
Заголовок                                : Авторский одноголосый (Гаврилов)
Язык                                     : Russian
Default                                  : Нет
Forced                                   : Нет
Аудио #3
Идентификатор                            : 4
Формат                                   : DTS
Формат/Информация                        : Digital Theater Systems
Идентификатор кодека                     : A_DTS
Продолжительность                        : 2 ч. 9 м.
Вид битрейта                             : Постоянный
Битрейт                                  : 1510 Кбит/сек
Каналы                                   : 6 каналов
Расположение каналов                     : Front: L C R, Side: L R, LFE
Частота                                  : 48,0 КГц
Битовая глубина                          : 24 бит
Метод сжатия                             : С потерями
Задержка видео                           : 17 мс.
Размер потока                            : 1,36 Гбайт (18%)
Заголовок                                : Оригинал
Язык                                     : English
Default                                  : Нет
Forced                                   : Нет
Текст #1
Идентификатор                            : 5
Формат                                   : UTF-8
Идентификатор кодека                     : S_TEXT/UTF8
Идентификатор кодека/Информация          : UTF-8 Plain Text
Язык                                     : Russian
Default                                  : Нет
Forced                                   : Нет
Текст #2
Идентификатор                            : 6
Формат                                   : UTF-8
Идентификатор кодека                     : S_TEXT/UTF8
Идентификатор кодека/Информация          : UTF-8 Plain Text
Язык                                     : English
Default                                  : Нет
Forced                                   : Нет
Скриншоты:

Время раздачи: До 10-15 скачавших
[Профиль] [ЛС]
Показать сообщения:    
Ответить на тему

Текущее время: 21-Янв 05:11

Часовой пояс: UTC + 3



Вы не можете начинать темы
Вы не можете отвечать на сообщения
Вы не можете редактировать свои сообщения
Вы не можете удалять свои сообщения
Вы не можете голосовать в опросах
Вы не можете прикреплять файлы к сообщениям
Вы не можете скачивать файлы