Сегодня идет свободное скачивание без начисления Download

(Nu-Metal) Adema - Дискография - 2001-2007, FLAC (tracks + .cue), lossless

Ответить на тему
 
Автор Сообщение

Bot ®

Стаж: 2 года 2 месяца

Сообщений: 2

Создавать темы 11-Янв-2017 18:47

[Цитировать]

Adema - Дискография- -Страна: USA
Жанр: Nu-Metal
Годы выпуска: 2001-2007
Формат: FLAC (tracks + .cue)
Битрейт аудио: lossless
Продолжительность: 3:43:11
-Альбомы:
2001 - Adema
Дата выхода: 21.08.2001
Продолжительность: 43:00
Треклист:
01. Everyone (3:29)
02. Blow It Away (3:03)
03. Giving In (4:35)
04. Freaking Out (3:36)
05. The Way You Like It (3:40)
06. Close Friends (3:24)
07. Do What You Want To Do (3:01)
08. Skin (3:24)
09. Pain Inside (3:29)
10. Speculum (3:32)
11. Drowning (3:26)
12. Trust (4:21)-
EAC extraction logfile
Exact Audio Copy V0.99 prebeta 4 from 23. January 2008
EAC extraction logfile from 29. March 2008, 23:55
Adema / Adema
Used drive : MAD DOG MD-16X2DVD9-8X Adapter: 1 ID: 0
Read mode : Secure
Utilize accurate stream : Yes
Defeat audio cache : Yes
Make use of C2 pointers : No
Read offset correction : 48
Overread into Lead-In and Lead-Out : No
Fill up missing offset samples with silence : Yes
Delete leading and trailing silent blocks : No
Null samples used in CRC calculations : No
Used interface : Native Win32 interface for Win NT & 2000
Gap handling : Appended to previous track
Used output format : User Defined Encoder
Selected bitrate : 192 kBit/s
Quality : High
Add ID3 tag : No
Command line compressor : C:\Program Files (x86)\Exact Audio Copy\flac.exe
Additional command line options : -V -8 -T "artist=%a" -T "title=%t" -T "album=%g" -T "date=%y" -T "tracknumber=%n" -T "genre=%m" %s
TOC of the extracted CD
Track | Start | Length | Start sector | End sector
---------------------------------------------------------
1 | 0:00.00 | 3:29.32 | 0 | 15706
2 | 3:29.32 | 3:02.68 | 15707 | 29424
3 | 6:32.25 | 4:34.55 | 29425 | 50029
4 | 11:07.05 | 3:35.52 | 50030 | 66206
5 | 14:42.57 | 3:39.70 | 66207 | 82701
6 | 18:22.52 | 3:24.05 | 82702 | 98006
7 | 21:46.57 | 3:00.40 | 98007 | 111546
8 | 24:47.22 | 3:23.48 | 111547 | 126819
9 | 28:10.70 | 3:29.02 | 126820 | 142496
10 | 31:39.72 | 3:32.15 | 142497 | 158411
11 | 35:12.12 | 3:26.25 | 158412 | 173886
12 | 38:38.37 | 4:21.23 | 173887 | 193484
Track 1
Filename D:\downloads\audio\uploads\Adema - Adema\01 - Everyone.wav
Pre-gap length 0:00:02.00
Peak level 99.8 %
Track quality 100.0 %
Test CRC 4DD383D7
Copy CRC 4DD383D7
Copy OK
Track 2
Filename D:\downloads\audio\uploads\Adema - Adema\02 - Blow It Away.wav
Peak level 99.8 %
Track quality 100.0 %
Test CRC 89FACF61
Copy CRC 89FACF61
Copy OK
Track 3
Filename D:\downloads\audio\uploads\Adema - Adema\03 - Giving In.wav
Peak level 99.8 %
Track quality 100.0 %
Test CRC 460DFFB8
Copy CRC 460DFFB8
Copy OK
Track 4
Filename D:\downloads\audio\uploads\Adema - Adema\04 - Freaking Out.wav
Peak level 99.8 %
Track quality 100.0 %
Test CRC EA5AD24F
Copy CRC EA5AD24F
Copy OK
Track 5
Filename D:\downloads\audio\uploads\Adema - Adema\05 - The Way You Like It.wav
Peak level 99.8 %
Track quality 100.0 %
Test CRC D2C1D42F
Copy CRC D2C1D42F
Copy OK
Track 6
Filename D:\downloads\audio\uploads\Adema - Adema\06 - Close Friends.wav
Peak level 99.8 %
Track quality 100.0 %
Test CRC 3FAE9B9A
Copy CRC 3FAE9B9A
Copy OK
Track 7
Filename D:\downloads\audio\uploads\Adema - Adema\07 - Do What You Want To Do.wav
Peak level 99.8 %
Track quality 100.0 %
Test CRC 0BA6CC6A
Copy CRC 0BA6CC6A
Copy OK
Track 8
Filename D:\downloads\audio\uploads\Adema - Adema\08 - Skin.wav
Peak level 99.8 %
Track quality 100.0 %
Test CRC E022FBC9
Copy CRC E022FBC9
Copy OK
Track 9
Filename D:\downloads\audio\uploads\Adema - Adema\09 - Pain Inside.wav
Peak level 99.8 %
Track quality 100.0 %
Test CRC ABE33438
Copy CRC ABE33438
Copy OK
Track 10
Filename D:\downloads\audio\uploads\Adema - Adema\10 - Speculum.wav
Peak level 99.8 %
Track quality 99.9 %
Test CRC FE1C42DE
Copy CRC FE1C42DE
Copy OK
Track 11
Filename D:\downloads\audio\uploads\Adema - Adema\11 - Drowning.wav
Peak level 99.8 %
Track quality 100.0 %
Test CRC 888BBE48
Copy CRC 888BBE48
Copy OK
Track 12
Filename D:\downloads\audio\uploads\Adema - Adema\12 - Trust.wav
Peak level 99.8 %
Track quality 100.0 %
Test CRC 4BD05A5A
Copy CRC 4BD05A5A
Copy OK
No errors occurred
End of status report
2002 - Insomniac's Dream EP
Дата выхода: 05.11.2002
Продолжительность: 26:56
Треклист:
01. Immortal (4:10)
02. Shattered (3:09)
03. Nutshell (4:28)
04. Freaking Out (Chris Vrenna Remix) (3:53)
05. The Way You Like It (Sam 'Sever' Citrin Remix) (3:55)
06. Do What You Want To Do (Live) (3:25)
07. Giving In (Radio Mix) (3:55)-
EAC extraction logfile
EAC extraction logfile from 11. October 2008, 11:26 for CD
Adema / Insomniac's Dream EP
Used drive : PIONEER DVD-RW DVR-115D Adapter: 2 ID: 0
Read mode : Secure with NO C2, accurate stream, disable cache
Read offset correction : 48
Overread into Lead-In and Lead-Out : No
Used output format : C:\Program Files\Exact Audio Copy\flac.exe (User Defined Encoder)
320 kBit/s
Additional command line options : -V -8 -T "artist=%a" -T "title=%t" -T "album=%g" -T "date=%y" -T "tracknumber=%n" -T "genre=%m" %s
Other options :
Fill up missing offset samples with silence : Yes
Delete leading and trailing silent blocks : No
Native Win32 interface for Win NT & 2000
Track 1
Filename H:\music\flac\Adema - 2002 - Insomniac's Dream EP\01 - Immortal.wav
Pre-gap length 0:00:02.00
Peak level 99.7 %
Track quality 100.0 %
Test CRC BC1B1ADD
Copy CRC BC1B1ADD
Copy OK
Track 2
Filename H:\music\flac\Adema - 2002 - Insomniac's Dream EP\02 - Shattered.wav
Peak level 96.5 %
Track quality 100.0 %
Test CRC 56771B9A
Copy CRC 56771B9A
Copy OK
Track 3
Filename H:\music\flac\Adema - 2002 - Insomniac's Dream EP\03 - Nutshell.wav
Peak level 97.8 %
Track quality 100.0 %
Test CRC 961BE3BC
Copy CRC 961BE3BC
Copy OK
Track 4
Filename H:\music\flac\Adema - 2002 - Insomniac's Dream EP\04 - Freaking Out (Chris Vrenna Remix).wav
Peak level 98.2 %
Track quality 100.0 %
Test CRC 0D789DB3
Copy CRC 0D789DB3
Copy OK
Track 5
Filename H:\music\flac\Adema - 2002 - Insomniac's Dream EP\05 - The Way You Like It (Sam 'Sever' Citrin Remix).wav
Peak level 99.0 %
Track quality 100.0 %
Test CRC C55A53FF
Copy CRC C55A53FF
Copy OK
Track 6
Filename H:\music\flac\Adema - 2002 - Insomniac's Dream EP\06 - Do What You Want To Do (Live).wav
Peak level 98.5 %
Track quality 100.0 %
Test CRC 3B3F0C03
Copy CRC 3B3F0C03
Copy OK
Track 7
Filename H:\music\flac\Adema - 2002 - Insomniac's Dream EP\07 - Giving In (Radio Mix).wav
Peak level 99.8 %
Track quality 99.9 %
Test CRC 0209FF5F
Copy CRC 0209FF5F
Copy OK
No errors occured
End of status report
2003 - Unstable
Дата выхода: 12.08.2003
Продолжительность: 40:48
Треклист:
01. Co Dependent (3:29)
02. Rip The Heart Out Of Me (2:24)
03. Stand Up (3:04)
04. Unstable (3:12)
05. Promises (4:16)
06. Blame Me (3:55)
07. So Fortunate (3:48)
08. Stressin' Out (3:37)
09. Do You Hear Me (3:27)
10. Let Go (3:04)
11. Betrayed Me (3:22)
12. Needles (3:09)-
EAC extraction logfile
Exact Audio Copy V0.99 prebeta 4 from 23. January 2008
EAC extraction logfile from 9. July 2008, 22:52
Adema / Unstable
Used drive : PIONEER DVD-RW DVR-K17LF Adapter: 1 ID: 0
Read mode : Secure
Utilize accurate stream : Yes
Defeat audio cache : Yes
Make use of C2 pointers : No
Read offset correction : 48
Overread into Lead-In and Lead-Out : No
Fill up missing offset samples with silence : Yes
Delete leading and trailing silent blocks : No
Null samples used in CRC calculations : Yes
Used interface : Installed external ASPI interface
Gap handling : Appended to previous track
Used output format : User Defined Encoder
Selected bitrate : 192 kBit/s
Quality : High
Add ID3 tag : No
Command line compressor : C:\Program Files\Exact Audio Copy\flac.exe
Additional command line options : -V -8 -T "artist=%a" -T "title=%t" -T "album=%g" -T "date=%y" -T "tracknumber=%n" -T "genre=%m" %s
TOC of the extracted CD
Track | Start | Length | Start sector | End sector
---------------------------------------------------------
1 | 0:00.00 | 3:28.42 | 0 | 15641
2 | 3:28.42 | 2:23.60 | 15642 | 26426
3 | 5:52.27 | 3:04.33 | 26427 | 40259
4 | 8:56.60 | 3:12.37 | 40260 | 54696
5 | 12:09.22 | 4:16.25 | 54697 | 73921
6 | 16:25.47 | 3:55.25 | 73922 | 91571
7 | 20:20.72 | 3:47.40 | 91572 | 108636
8 | 24:08.37 | 3:37.15 | 108637 | 124926
9 | 27:45.52 | 3:26.53 | 124927 | 140429
10 | 31:12.30 | 3:04.27 | 140430 | 154256
11 | 34:16.57 | 3:22.23 | 154257 | 169429
12 | 37:39.05 | 3:08.45 | 169430 | 183574
13 | 43:19.50 | 0:12.39 | 194975 | 195913
Track 1
Filename C:\EAC Rips\Adema - 2003 - Unstable\01 - Co Dependent.wav
Pre-gap length 0:00:02.00
Peak level 98.8 %
Track quality 99.9 %
Test CRC 666DF2A5
Copy CRC 666DF2A5
Accurately ripped (confidence 34) [AAAA0EBF]
Copy OK
Track 2
Filename C:\EAC Rips\Adema - 2003 - Unstable\02 - Rip The Heart Out Of Me.wav
Peak level 98.8 %
Track quality 99.9 %
Test CRC 5876B08A
Copy CRC 5876B08A
Accurately ripped (confidence 34) [A786E664]
Copy OK
Track 3
Filename C:\EAC Rips\Adema - 2003 - Unstable\03 - Stand Up.wav
Peak level 97.7 %
Track quality 100.0 %
Test CRC 8A362B5B
Copy CRC 8A362B5B
Accurately ripped (confidence 34) [A2ADF6A6]
Copy OK
Track 4
Filename C:\EAC Rips\Adema - 2003 - Unstable\04 - Unstable.wav
Peak level 98.8 %
Track quality 100.0 %
Test CRC D97352D4
Copy CRC D97352D4
Accurately ripped (confidence 33) [37A4CF7E]
Copy OK
Track 5
Filename C:\EAC Rips\Adema - 2003 - Unstable\05 - Promises.wav
Peak level 97.7 %
Track quality 99.9 %
Test CRC 35958E36
Copy CRC 35958E36
Accurately ripped (confidence 34) [2C9CAFE3]
Copy OK
Track 6
Filename C:\EAC Rips\Adema - 2003 - Unstable\06 - Blame Me.wav
Peak level 94.4 %
Track quality 100.0 %
Test CRC DC607A43
Copy CRC DC607A43
Accurately ripped (confidence 34) [22AA2221]
Copy OK
Track 7
Filename C:\EAC Rips\Adema - 2003 - Unstable\07 - So Fortunate.wav
Peak level 97.7 %
Track quality 100.0 %
Test CRC 506CC7E8
Copy CRC 506CC7E8
Accurately ripped (confidence 34) [D42C20C4]
Copy OK
Track 8
Filename C:\EAC Rips\Adema - 2003 - Unstable\08 - Stressin' Out.wav
Peak level 98.8 %
Track quality 100.0 %
Test CRC FA406940
Copy CRC FA406940
Accurately ripped (confidence 34) [0AC4E8C2]
Copy OK
Track 9
Filename C:\EAC Rips\Adema - 2003 - Unstable\09 - Do You Hear Me.wav
Peak level 97.7 %
Track quality 100.0 %
Test CRC 88E9EDED
Copy CRC 88E9EDED
Accurately ripped (confidence 33) [6B9C01B2]
Copy OK
Track 10
Filename C:\EAC Rips\Adema - 2003 - Unstable\10 - Let Go.wav
Peak level 97.7 %
Track quality 100.0 %
Test CRC EF24F29C
Copy CRC EF24F29C
Accurately ripped (confidence 34) [3FEE500F]
Copy OK
Track 11
Filename C:\EAC Rips\Adema - 2003 - Unstable\11 - Betrayed Me.wav
Peak level 98.8 %
Track quality 100.0 %
Test CRC 3E4BB763
Copy CRC 3E4BB763
Accurately ripped (confidence 33) [7338C3FD]
Copy OK
Track 12
Filename C:\EAC Rips\Adema - 2003 - Unstable\12 - Needles.wav
Peak level 98.8 %
Track quality 100.0 %
Test CRC DF3B18C5
Copy CRC DF3B18C5
Accurately ripped (confidence 34) [0080C409]
Copy OK
All tracks accurately ripped
No errors occurred
End of status report
2005 - Planets
Дата выхода: 05.04.2005
Продолжительность: 72:58
Треклист:
01. Shoot The Arrows (4:27)
02. Barricades In Time (4:18)
03. Tornado (3:50)
04. Sevenfold (5:06)
05. Planets (3:58)
06. Enter The Cage (4:04)
07. Remember (5:31)
08. Chel (3:42)
09. Until Now (3:47)
10. Rise Above (5:03)
11. Bad Triangle (4:01)
12. Better Living Through Chemistry (4:52)
13. Refusing Consciousness (3:25)
14. Lift Us Up (5:23)
15. Vikraphone (3:49)
16. Estrellas (7:42)-
EAC extraction logfile
Exact Audio Copy V0.99 prebeta 4 from 23. January 2008
EAC extraction logfile from 7. October 2008, 16:37
Adema / Planets
Used drive : HL-DT-STRW/DVD GCC-4247N Adapter: 1 ID: 0
Read mode : Secure
Utilize accurate stream : Yes
Defeat audio cache : Yes
Make use of C2 pointers : No
Read offset correction : 6
Overread into Lead-In and Lead-Out : No
Fill up missing offset samples with silence : Yes
Delete leading and trailing silent blocks : No
Null samples used in CRC calculations : Yes
Used interface : Native Win32 interface for Win NT & 2000
Gap handling : Appended to previous track
Used output format : User Defined Encoder
Selected bitrate : 320 kBit/s
Quality : High
Add ID3 tag : No
Command line compressor : C:\Program Files\FLAC\flac.exe
Additional command line options : -V -8 -T "artist=%a" -T "title=%t" -T "album=%g" -T "date=%y" -T "tracknumber=%n" -T "genre=%m" %s
TOC of the extracted CD
Track | Start | Length | Start sector | End sector
---------------------------------------------------------
1 | 0:00.00 | 4:27.02 | 0 | 20026
2 | 4:27.02 | 4:18.01 | 20027 | 39377
3 | 8:45.03 | 3:49.71 | 39378 | 56623
4 | 12:34.74 | 5:06.27 | 56624 | 79600
5 | 17:41.26 | 3:58.05 | 79601 | 97455
6 | 21:39.31 | 4:04.30 | 97456 | 115785
7 | 25:43.61 | 5:31.28 | 115786 | 140638
8 | 31:15.14 | 3:42.05 | 140639 | 157293
9 | 34:57.19 | 3:47.21 | 157294 | 174339
10 | 38:44.40 | 5:02.62 | 174340 | 197051
11 | 43:47.27 | 4:00.45 | 197052 | 215096
12 | 47:47.72 | 4:52.15 | 215097 | 237011
13 | 52:40.12 | 3:24.38 | 237012 | 252349
14 | 56:04.50 | 5:23.18 | 252350 | 276592
15 | 61:27.68 | 3:48.71 | 276593 | 293763
16 | 65:16.64 | 7:41.48 | 293764 | 328386
Track 1
Filename I:\Adema - 2005 - Planets\01 - Shoot The Arrows.wav
Pre-gap length 0:00:02.00
Peak level 98.8 %
Track quality 100.0 %
Test CRC B82E2694
Copy CRC B82E2694
Copy OK
Track 2
Filename I:\Adema - 2005 - Planets\02 - Barricades In Time.wav
Pre-gap length 0:00:01.17
Peak level 98.8 %
Track quality 99.9 %
Test CRC 19FF9E10
Copy CRC 19FF9E10
Copy OK
Track 3
Filename I:\Adema - 2005 - Planets\03 - Tornado.wav
Peak level 98.8 %
Track quality 100.0 %
Test CRC B004256B
Copy CRC B004256B
Copy OK
Track 4
Filename I:\Adema - 2005 - Planets\04 - Sevenfold.wav
Pre-gap length 0:00:01.08
Peak level 98.8 %
Track quality 100.0 %
Test CRC 539D7440
Copy CRC 539D7440
Copy OK
Track 5
Filename I:\Adema - 2005 - Planets\05 - Planets.wav
Peak level 98.8 %
Track quality 99.9 %
Test CRC F4B7DB08
Copy CRC F4B7DB08
Copy OK
Track 6
Filename I:\Adema - 2005 - Planets\06 - Enter The Cage.wav
Peak level 98.8 %
Track quality 99.9 %
Test CRC 704D7F4A
Copy CRC 704D7F4A
Copy OK
Track 7
Filename I:\Adema - 2005 - Planets\07 - Remember.wav
Peak level 98.8 %
Track quality 99.9 %
Test CRC C4EFEF75
Copy CRC C4EFEF75
Copy OK
Track 8
Filename I:\Adema - 2005 - Planets\08 - Chel.wav
Peak level 98.8 %
Track quality 100.0 %
Test CRC DA97A42F
Copy CRC DA97A42F
Copy OK
Track 9
Filename I:\Adema - 2005 - Planets\09 - Until Now.wav
Peak level 98.8 %
Track quality 100.0 %
Test CRC 50FDA781
Copy CRC 50FDA781
Copy OK
Track 10
Filename I:\Adema - 2005 - Planets\10 - Rise Above.wav
Peak level 98.8 %
Track quality 99.9 %
Test CRC 3E9C9DE1
Copy CRC 3E9C9DE1
Copy OK
Track 11
Filename I:\Adema - 2005 - Planets\11 - Bad Triangle.wav
Peak level 98.8 %
Track quality 100.0 %
Test CRC B7697DF3
Copy CRC B7697DF3
Copy OK
Track 12
Filename I:\Adema - 2005 - Planets\12 - Better Living Through Chemistry.wav
Peak level 98.8 %
Track quality 99.9 %
Test CRC 4F363A38
Copy CRC 4F363A38
Copy OK
Track 13
Filename I:\Adema - 2005 - Planets\13 - Refusing Consciousness.wav
Peak level 98.8 %
Track quality 100.0 %
Test CRC E460BF88
Copy CRC E460BF88
Copy OK
Track 14
Filename I:\Adema - 2005 - Planets\14 - Lift Us Up.wav
Peak level 98.8 %
Track quality 100.0 %
Test CRC 4F2E0051
Copy CRC 4F2E0051
Copy OK
Track 15
Filename I:\Adema - 2005 - Planets\15 - Vikraphone.wav
Peak level 98.8 %
Track quality 100.0 %
Test CRC 12DC965C
Copy CRC 12DC965C
Copy OK
Track 16
Filename I:\Adema - 2005 - Planets\16 - Estrellas.wav
Pre-gap length 0:00:01.94
Peak level 98.8 %
Track quality 99.8 %
Test CRC FFC3389A
Copy CRC FFC3389A
Copy OK
No errors occurred
End of status report
2007 - Kill The Headlights
Дата выхода: 13.02.2007
Продолжительность: 39:29
Треклист:
01. Cold And Jaded (3:25)
02. Brand New Thing (3:41)
03. Open Till Midnight (3:43)
04. Waiting For Daylight (3:00)
05. Days Go By (3:53)
06. Prelude (0:27)
07. All These Years (3:03)
08. What Doesn't Kill Us (3:36)
09. Invisible (3:59)
10. Black Clouds (3:31)
11. Los Angeles (3:37)
12. The Losers (3:32)-
EAC extraction logfile
EAC extraction logfile from 21. August 2007, 14:57 for CD
Adema / Kill The Headlights
Used drive : HP DVD Writer 740e Adapter: 2 ID: 0
Read mode : Secure with NO C2, accurate stream, disable cache
Read offset correction : 102
Overread into Lead-In and Lead-Out : No
Used output format : C:\Program Files\FLAC\flac.exe (User Defined Encoder)
192 kBit/s
Additional command line options : -V -8 -T "artist=%a" -T "title=%t" -T "album=%g" -T "date=%y" -T "tracknumber=%n" -T "genre=%m" %s
Other options :
Fill up missing offset samples with silence : Yes
Delete leading and trailing silent blocks : No
Native Win32 interface for Win NT & 2000
Track 1
Filename D:\FlacRip\Adema - Kill The Headlights\01 - Cold And Jaded.wav
Pre-gap length 0:00:02.00
Peak level 99.9 %
Track quality 100.0 %
Test CRC B0BB1FC8
Copy CRC B0BB1FC8
Copy OK
Track 2
Filename D:\FlacRip\Adema - Kill The Headlights\02 - Brand New Thing.wav
Peak level 99.9 %
Track quality 100.0 %
Test CRC 209EACBA
Copy CRC 209EACBA
Copy OK
Track 3
Filename D:\FlacRip\Adema - Kill The Headlights\03 - Open Till Midnight.wav
Peak level 99.9 %
Track quality 100.0 %
Test CRC 6A562324
Copy CRC 6A562324
Copy OK
Track 4
Filename D:\FlacRip\Adema - Kill The Headlights\04 - Waiting For Daylight.wav
Pre-gap length 0:00:00.64
Peak level 99.9 %
Track quality 99.9 %
Test CRC 026FB25D
Copy CRC 026FB25D
Copy OK
Track 5
Filename D:\FlacRip\Adema - Kill The Headlights\05 - Days Go By.wav
Pre-gap length 0:00:01.05
Peak level 99.8 %
Track quality 100.0 %
Test CRC DEAD91F2
Copy CRC DEAD91F2
Copy OK
Track 6
Filename D:\FlacRip\Adema - Kill The Headlights\06 - Prelude.wav
Peak level 42.1 %
Track quality 99.6 %
Test CRC 59336B68
Copy CRC 59336B68
Copy OK
Track 7
Filename D:\FlacRip\Adema - Kill The Headlights\07 - All These Years.wav
Peak level 99.1 %
Track quality 100.0 %
Test CRC 8E9E1539
Copy CRC 8E9E1539
Copy OK
Track 8
Filename D:\FlacRip\Adema - Kill The Headlights\08 - What Doesn't Kill Us.wav
Pre-gap length 0:00:00.28
Peak level 99.9 %
Track quality 100.0 %
Test CRC CC0A6096
Copy CRC CC0A6096
Copy OK
Track 9
Filename D:\FlacRip\Adema - Kill The Headlights\09 - Invisible.wav
Pre-gap length 0:00:00.56
Peak level 99.8 %
Track quality 100.0 %
Test CRC 13CE4EBB
Copy CRC 13CE4EBB
Copy OK
Track 10
Filename D:\FlacRip\Adema - Kill The Headlights\10 - Black Clouds.wav
Pre-gap length 0:00:00.32
Peak level 99.9 %
Track quality 99.9 %
Test CRC 390711E8
Copy CRC 390711E8
Copy OK
Track 11
Filename D:\FlacRip\Adema - Kill The Headlights\11 - Los Angeles.wav
Pre-gap length 0:00:01.32
Peak level 99.8 %
Track quality 100.0 %
Test CRC 7B7EEE64
Copy CRC 7B7EEE64
Copy OK
Track 12
Filename D:\FlacRip\Adema - Kill The Headlights\12 - The Losers.wav
Pre-gap length 0:00:00.09
Peak level 99.9 %
Track quality 100.0 %
Test CRC 49021BDB
Copy CRC 49021BDB
Copy OK
No errors occured
End of status report
-
Примечания
Косяки рипов:
1. "Adema" (2001)
Цитата:
Null samples used in CRC calculations: No
2. "Planets" (2005)
Неправильно проставлен оффсет (Правильный оффсет: 102)
-
[Профиль] [ЛС]
Показать сообщения:    
Ответить на тему

Текущее время: 23-Фев 12:24

Часовой пояс: UTC + 3



Вы не можете начинать темы
Вы не можете отвечать на сообщения
Вы не можете редактировать свои сообщения
Вы не можете удалять свои сообщения
Вы не можете голосовать в опросах
Вы не можете прикреплять файлы к сообщениям
Вы не можете скачивать файлы