Сегодня идет свободное скачивание без начисления Download

(Reggae) UB40 - UB44 - 1982, FLAC (image+.cue), lossless

Ответить на тему
 
Автор Сообщение

Bot ®

Стаж: 3 года 8 месяцев

Сообщений: 7

Создавать темы 11-Янв-2017 19:17

[Цитировать]

UB40 - UB44
Жанр: Reggae
Год выпуска диска: 1982
Страна: Англия
Аудио кодек: FLAC
Тип рипа: image+.cue
Битрейт аудио: lossless
Продолжительность: 40:17
Трэклист:
1. So Here I Am
2. I Won't Close My Eyes
3. Forget The Cost
4. Love Is All Is Alright
5. The Piper Calls The Tune
6. The Key
7. Don't Do The Crime
8. Folitician
9. The Prisoner
Лог EAC
Exact Audio Copy V0.99 prebeta 4 from 23. January 2008
Отчёт EAC об извлечении, выполненном 23. декабря 2008, 2:21
UB40 / UB44
Дисковод: TEAC DV-W520GM Adapter: 4 ID: 2
Режим чтения : Достоверность
Использование точного потока : Да
Отключение кэша аудио : Да
Использование указателей C2 : Нет
Коррекция смещения при чтении : 6
Способность читать области Lead-in и Lead-out : Нет
Заполнение пропущенных сэмплов тишиной : Да
Удаление блоков с тишиной в начале и конце : Нет
При вычислениях CRC использовались нулевые сэмплы : Да
Интерфейс : Установленный внешний ASPI-интерфейс
Выходной формат : Внутренние WAV-операции
Формат сэмплов : 44.100 Гц; 16 бит; стерео
TOC извлечённого CD
Трек | Старт | Длительность | Начальный сектор | Конечный сектор
---------------------------------------------------------------------
1 | 0:00.00 | 3:54.37 | 0 | 17586
2 | 3:54.37 | 3:46.50 | 17587 | 34586
3 | 7:41.12 | 4:22.45 | 34587 | 54281
4 | 12:03.57 | 4:57.03 | 54282 | 76559
5 | 17:00.60 | 3:50.17 | 76560 | 93826
6 | 20:51.02 | 5:05.35 | 93827 | 116736
7 | 25:56.37 | 4:12.58 | 116737 | 135694
8 | 30:09.20 | 4:10.12 | 135695 | 154456
9 | 34:19.32 | 5:57.43 | 154457 | 181274
Характеристики диапазона извлечения и сообщения об ошибках
Выбранный диапазон
Имя файла F:\RELEASE\My RELEASES\UB40 - UB44 [1982]\UB40 - UB44.wav
Пиковый уровень 96.9 %
Качество диапазона 100.0 %
CRC теста 0C2BBF2D
CRC копии 0C2BBF2D
Копирование... OK
Ошибок не произошло
AccurateRip: сводка
Трек 1 точное извлечение (доверие 4) [5162BEBC]
Трек 2 точное извлечение (доверие 4) [D8BAD170]
Трек 3 точное извлечение (доверие 4) [537DFC99]
Трек 4 точное извлечение (доверие 4) [965240B7]
Трек 5 точное извлечение (доверие 4) [50334DFE]
Трек 6 точное извлечение (доверие 4) [B2B60F05]
Трек 7 точное извлечение (доверие 4) [9B1FF28B]
Трек 8 точное извлечение (доверие 4) [FD863C1E]
Трек 9 точное извлечение (доверие 4) [3AF2162A]
Все треки извлечены точно
Конец отчёта
audiochecker.log
AUDIOCHECKER v2.0 beta (build 457) - by Dester - opdester@freemail.hu
~~~~~~~~~~~~~~~~~~~~~~~~~~~~~~~~~~
-=== DO NOT EDIT THIS FILE! ===-
Path: ...\UB40 - UB44 [1982]
1 -=- UB40 - UB44.flac -=- CDDA (100%)
106688340
[Профиль] [ЛС]
Показать сообщения:    
Ответить на тему

Текущее время: 23-Ноя 14:18

Часовой пояс: UTC + 3



Вы не можете начинать темы
Вы не можете отвечать на сообщения
Вы не можете редактировать свои сообщения
Вы не можете удалять свои сообщения
Вы не можете голосовать в опросах
Вы не можете прикреплять файлы к сообщениям
Вы не можете скачивать файлы