Сегодня идет свободное скачивание без начисления Download

(Классическая гитара) J.S.Bach. Works for Lute. Vol. 1 & 2 / Goran Sollscher, Guitar - 1983, APE (image+.cue), lossless

Ответить на тему
 
Автор Сообщение

Bot ®

Стаж: 1 год 10 месяцев

Сообщений: 6

Создавать темы 11-Янв-2017 19:17

[Цитировать]

J.S.Bach. Works for Lute. Vol. 1 & 2 / Goran Sollscher, Guitar
Жанр: Классическая гитара
Год выпуска диска: 1983
Производитель диска: Германия
Аудио кодек: APE
Тип рипа: image+.cue
Битрейт аудио: lossless
Продолжительность: 0:44:19:07 + 0:57:58:00
Трэклист Vol.1:
CD: Goran Sollscher - Works for Lute Vol. 1 [0:44:19:07]
Goran Sollscher
Lute YEAR: 1983 ID3G: 32
01. Fugue In G-Minor, BWV 1000 [0:05:37.62]
02. Suite In G Minor: 1. Praeludio, Passagio-Presto [0:02:49.30]
Suite in G minor
(Transposition of the Suite in E minor,
BWV 996)
03. Suite In G Minor: 2. Allemande [0:02:17.30]
04. Suite In G Minor: 3. Courante [0:02:48.18]
05. Suite In G Minor: 4. Sarabande [0:03:50.50]
06. Suite In G Minor: 5. Bourree [0:01:15.30]
07. Suite In G Minor: 6. Gigue [0:03:20.12]
08. Suite In C Minor, BWV 997: 1. Preludio [0:03:22.43]
09. Suite In C Minor, BWV 997: 2. Fuga [0:07:38.02]
10. Suite In C Minor, BWV 997: 3. Sarabande [0:05:10.25]
11. Suite In C Minor, BWV 997: 4. Gigue-Double [0:06:09.05]
Трэклист Vol.2:
CD: Goran Sollsher - J.S.Bach. Works for Lute. Vol. 2.
01. Prelude in C minor, BWV 999 [0:01:52.00]
02. Suite in G minor, BWV 995, Prelude [0:06:11.37]
03. Suite in G minor, BWV 995, Allemande [0:05:07.25]
04. Suite in G minor, BWV 995, Courante [0:02:00.00]
05. Suite in G minor, BWV 995, Sarabande [0:03:02.25]
06. Suite in G minor, BWV 995, Gavotte I / II en Rondeau [0:04:24.00]
07. Suite in G minor, BWV 995, Gigue [0:02:33.63]
08. Prelude in E flat major, BWV 998 [0:03:15.62]
09. Fuga in E flat major, BWV 998 [0:06:22.00]
10. Allegro in E flat major, BWV 998 [0:03:25.13]
11. Suite in E major, BWV 1006a, Prelude [0:05:13.25]
12. Suite in E major, BWV 1006a, Loure [0:03:07.62]
13. Suite in E major, BWV 1006a, Gavotte en Rondeau [0:03:07.50]
14. Suite in E major, BWV 1006a, Menuet I/II [0:04:05.00]
15. Suite in E major, BWV 1006a, Bourree [0:01:51.18]
16. Suite in E major, BWV 1006a, Gigue [0:02:18.70]
Works for Lute Vol.1 log
Exact Audio Copy V0.99 prebeta 3 from 28. July 2007
Отчёт EAC об извлечении, выполненном 21. декабря 2008, 21:11
Goran Sollscher / Works for Lute Vol. 1
Дисковод: TEAC CD-W524E Adapter: 4 ID: 0
Режим чтения : Достоверность
Использование точного потока : Да
Отключение кэша аудио : Да
Использование указателей C2 : Нет
Коррекция смещения при чтении : 655
Способность читать области Lead-in и Lead-out : Нет
Заполнение пропущенных сэмплов тишиной : Да
Удаление блоков с тишиной в начале и конце : Нет
При вычислениях CRC использовались нулевые сэмплы : Нет
Интерфейс : Встроенный Win32-интерфейс для Win NT/2000
Выходной формат : Внутренние WAV-операции
Формат сэмплов : 44.100 Гц; 16 бит; стерео
TOC извлечённого CD
Трек | Старт | Длительность | Начальный сектор | Конечный сектор
---------------------------------------------------------------------
1 | 0:00.33 | 5:37.62 | 33 | 25369
2 | 5:38.20 | 2:49.30 | 25370 | 38074
3 | 8:27.50 | 2:17.30 | 38075 | 48379
4 | 10:45.05 | 2:48.18 | 48380 | 60997
5 | 13:33.23 | 3:50.50 | 60998 | 78297
6 | 17:23.73 | 1:15.30 | 78298 | 83952
7 | 18:39.28 | 3:20.12 | 83953 | 98964
8 | 21:59.40 | 3:22.43 | 98965 | 114157
9 | 25:22.08 | 7:38.02 | 114158 | 148509
10 | 33:00.10 | 5:10.25 | 148510 | 171784
11 | 38:10.35 | 6:09.05 | 171785 | 199464
Характеристики диапазона извлечения и сообщения об ошибках
Выбранный диапазон
Имя файла F:\Musik\CD_EAC_Cue\Goran Sollscher - Works for Lute Vol. 1.wav
Пиковый уровень 61.5 %
Качество диапазона 99.9 %
CRC копии 3146185C
Копирование... OK
Ошибок не произошло
Конец отчёта
Works for Lute Vol.2 log
Exact Audio Copy V0.99 prebeta 3 from 28. July 2007
Отчёт EAC об извлечении, выполненном 22. декабря 2008, 14:56
Goran Sollsher / J.S.Bach. Works for Lute. Vol. 2.
Дисковод: TEAC CD-W524E Adapter: 4 ID: 0
Режим чтения : Достоверность
Использование точного потока : Да
Отключение кэша аудио : Да
Использование указателей C2 : Нет
Коррекция смещения при чтении : 655
Способность читать области Lead-in и Lead-out : Нет
Заполнение пропущенных сэмплов тишиной : Да
Удаление блоков с тишиной в начале и конце : Нет
При вычислениях CRC использовались нулевые сэмплы : Нет
Интерфейс : Встроенный Win32-интерфейс для Win NT/2000
Выходной формат : Внутренние WAV-операции
Формат сэмплов : 44.100 Гц; 16 бит; стерео
TOC извлечённого CD
Трек | Старт | Длительность | Начальный сектор | Конечный сектор
---------------------------------------------------------------------
1 | 0:00.33 | 1:52.00 | 33 | 8432
2 | 1:52.33 | 6:11.37 | 8433 | 36294
3 | 8:03.70 | 5:07.25 | 36295 | 59344
4 | 13:11.20 | 2:00.00 | 59345 | 68344
5 | 15:11.20 | 3:02.25 | 68345 | 82019
6 | 18:13.45 | 4:24.00 | 82020 | 101819
7 | 22:37.45 | 2:33.63 | 101820 | 113357
8 | 25:11.33 | 3:15.62 | 113358 | 128044
9 | 28:27.20 | 6:22.00 | 128045 | 156694
10 | 34:49.20 | 3:25.13 | 156695 | 172082
11 | 38:14.33 | 5:13.25 | 172083 | 195582
12 | 43:27.58 | 3:07.62 | 195583 | 209669
13 | 46:35.45 | 3:07.50 | 209670 | 223744
14 | 49:43.20 | 4:05.00 | 223745 | 242119
15 | 53:48.20 | 1:51.18 | 242120 | 250462
16 | 55:39.38 | 2:18.70 | 250463 | 260882
Характеристики диапазона извлечения и сообщения об ошибках
Выбранный диапазон
Имя файла F:\Musik\CD_EAC_Cue\Goran Sollsher - J.S.Bach. Works for Lute. Vol. 2..wav
Пиковый уровень 77.7 %
Качество диапазона 100.0 %
CRC копии A90F8462
Копирование... OK
Ошибок не произошло
Конец отчёта
Доп. информация: Знаменитые лютневые произведения Баха в гитарном исполнении Горана Солльшера. DDD, немецкий мастеринг и при этом чрезвычайно мягкое (возможно даже чрезмерно мягкое и объемное для гитары, но на вкус на цвет, как говорится;-) )
Данная раздача, несмотря на претенциозное качество оцифровки без потерь, создана исключительно в ознакомительных целях!
См. также:
J.S.Bach. Suites BWV 1007, BWV 1008, BWV 1012. Sonata BWV 1005 / Goran Sollscher, Guitar
Narciso Yepes. Guitarra Espanola. 5cd box
Pepe Romero - Guitar Solos
Andres Segovia. Recital de Guitarra
[Профиль] [ЛС]
Показать сообщения:    
Ответить на тему

Текущее время: 17-Дек 20:47

Часовой пояс: UTC + 3



Вы не можете начинать темы
Вы не можете отвечать на сообщения
Вы не можете редактировать свои сообщения
Вы не можете удалять свои сообщения
Вы не можете голосовать в опросах
Вы не можете прикреплять файлы к сообщениям
Вы не можете скачивать файлы