Сегодня идет свободное скачивание без начисления Download

(Experimental, Jazz, Pop) Haco - Riska - 2007, FLAC (tracks+.cue), lossless

Ответить на тему
 
Автор Сообщение

Bot ®

Стаж: 9 месяцев 4 дня

Сообщений: 4

Создавать темы 11-Янв-2017 19:17

[Цитировать]

Haco - Riska
Жанр: Electronic, Experimental, Jazz, Non-Music, Pop
Год выпуска диска: 2007
Производитель диска: Japan
Лэйбл: Arcàngelo
Номер по каталогу: ARC-1122
Аудио кодек: FLAC
Тип рипа: tracks+.cue+.m3u
Битрейт аудио: lossless
Продолжительность: 54:13
Трэклист:
01. Purusa (5:53)
02. Shower Alone (6:19)
03. Full-color Palette (7:44)
04. No Envy, No Meanness (5:58)
05. High-tension Wire (4:31)
06. Chat Night (5:32)
07. Riska (3:55)
08. Magnetic Field Of Riska (10:00)
09. Flashback (4:10)


Доступен также в MP3 320 kbps
Отчёт EAC
Exact Audio Copy V0.99 prebeta 4 from 23. January 2008
EAC extraction logfile from 2. September 2008, 21:04
Haco / Riska
Used drive : IDE-DVD DROM6216 Adapter: 2 ID: 1
Read mode : Secure
Utilize accurate stream : Yes
Defeat audio cache : Yes
Make use of C2 pointers : No
Read offset correction : 738
Overread into Lead-In and Lead-Out : No
Fill up missing offset samples with silence : Yes
Delete leading and trailing silent blocks : No
Null samples used in CRC calculations : Yes
Used interface : Installed external ASPI interface
Gap handling : Appended to previous track
Used output format : User Defined Encoder
Selected bitrate : 128 kBit/s
Quality : High
Add ID3 tag : No
Command line compressor : C:\Program Files\FLAC\flac.exe
Additional command line options : -V -8 -T "artist=%a" -T "title=%t" -T "album=%g" -T "date=%y" -T "tracknumber=%n" -T "genre=%m" %s
TOC of the extracted CD
Track | Start | Length | Start sector | End sector
---------------------------------------------------------
1 | 0:00.00 | 5:53.60 | 0 | 26534
2 | 5:53.60 | 6:20.27 | 26535 | 55061
3 | 12:14.12 | 7:45.30 | 55062 | 89966
4 | 19:59.42 | 5:59.08 | 89967 | 116899
5 | 25:58.50 | 4:31.62 | 116900 | 137286
6 | 30:30.37 | 5:35.10 | 137287 | 162421
7 | 36:05.47 | 3:55.48 | 162422 | 180094
8 | 40:01.20 | 10:01.07 | 180095 | 225176
9 | 50:02.27 | 4:10.68 | 225177 | 243994
Track 1
Filename E:\Discographies\Haco\Haco - Riska (2007) [FLAC]\01 - Purusa.wav
Pre-gap length 0:00:02.00
Peak level 95.2 %
Track quality 100.0 %
Test CRC 14C3D53A
Copy CRC 14C3D53A
Track not present in AccurateRip database
Copy OK
Track 2
Filename E:\Discographies\Haco\Haco - Riska (2007) [FLAC]\02 - Shower Alone.wav
Pre-gap length 0:00:00.60
Peak level 100.0 %
Track quality 100.0 %
Test CRC 3D28EC50
Copy CRC 3D28EC50
Track not present in AccurateRip database
Copy OK
Track 3
Filename E:\Discographies\Haco\Haco - Riska (2007) [FLAC]\03 - Full-Color Palette.wav
Pre-gap length 0:00:01.26
Peak level 97.0 %
Track quality 100.0 %
Test CRC 38861392
Copy CRC 38861392
Track not present in AccurateRip database
Copy OK
Track 4
Filename E:\Discographies\Haco\Haco - Riska (2007) [FLAC]\04 - No Envy, No Meanness.wav
Pre-gap length 0:00:00.60
Peak level 94.4 %
Track quality 100.0 %
Test CRC 831D43A3
Copy CRC 831D43A3
Track not present in AccurateRip database
Copy OK
Track 5
Filename E:\Discographies\Haco\Haco - Riska (2007) [FLAC]\05 - High-Tension Wire.wav
Pre-gap length 0:00:00.60
Peak level 96.3 %
Track quality 100.0 %
Test CRC 0FBC4402
Copy CRC 0FBC4402
Track not present in AccurateRip database
Copy OK
Track 6
Filename E:\Discographies\Haco\Haco - Riska (2007) [FLAC]\06 - Chat Night.wav
Pre-gap length 0:00:00.73
Peak level 98.5 %
Track quality 100.0 %
Test CRC F132B26E
Copy CRC F132B26E
Track not present in AccurateRip database
Copy OK
Track 7
Filename E:\Discographies\Haco\Haco - Riska (2007) [FLAC]\07 - Riska.wav
Pre-gap length 0:00:02.13
Peak level 81.2 %
Track quality 100.0 %
Test CRC 7CD0179C
Copy CRC 7CD0179C
Track not present in AccurateRip database
Copy OK
Track 8
Filename E:\Discographies\Haco\Haco - Riska (2007) [FLAC]\08 - Magnetic Field Of Riska.wav
Pre-gap length 0:00:00.13
Peak level 100.0 %
Track quality 100.0 %
Test CRC 071A2540
Copy CRC 071A2540
Track not present in AccurateRip database
Copy OK
Track 9
Filename E:\Discographies\Haco\Haco - Riska (2007) [FLAC]\09 - Flashback.wav
Pre-gap length 0:00:00.80
Peak level 95.6 %
Track quality 100.0 %
Test CRC 30394F01
Copy CRC 30394F01
Track not present in AccurateRip database
Copy OK
None of the tracks are present in the AccurateRip database
No errors occurred
End of status report
Отчёт Audiochecker:
AUDIOCHECKER v1.2 - by Dester - opdester@freemail.hu
~~~~~~~~~~~~~~~~~
1 -===- W:\Uploads\Haco - Riska (2007) [FLAC]\01 - Purusa.flac
Extracted successfully
Conclusion: This track looks like CDDA with probability 100%
2 -===- W:\Uploads\Haco - Riska (2007) [FLAC]\02 - Shower Alone.flac
Extracted successfully
Conclusion: This track looks like CDDA with probability 100%
3 -===- W:\Uploads\Haco - Riska (2007) [FLAC]\03 - Full-Color Palette.flac
Extracted successfully
Conclusion: This track looks like CDDA with probability 76%
4 -===- W:\Uploads\Haco - Riska (2007) [FLAC]\04 - No Envy, No Meanness.flac
Extracted successfully
Conclusion: This track looks like CDDA with probability 100%
5 -===- W:\Uploads\Haco - Riska (2007) [FLAC]\05 - High-Tension Wire.flac
Extracted successfully
Conclusion: This track looks like CDDA with probability 100%
6 -===- W:\Uploads\Haco - Riska (2007) [FLAC]\06 - Chat Night.flac
Extracted successfully
Conclusion: This track looks like CDDA with probability 100%
7 -===- W:\Uploads\Haco - Riska (2007) [FLAC]\07 - Riska.flac
Extracted successfully
Conclusion: This track looks like MPEG with probability 89%
8 -===- W:\Uploads\Haco - Riska (2007) [FLAC]\08 - Magnetic Field Of Riska.flac
Extracted successfully
Conclusion: This track looks like CDDA with probability 100%
9 -===- W:\Uploads\Haco - Riska (2007) [FLAC]\09 - Flashback.flac
Extracted successfully
Conclusion: This track looks like CDDA with probability 100%
Спектральный анализ Adobe Audition (весь диск):
[Профиль] [ЛС]
Показать сообщения:    
Ответить на тему

Текущее время: 26-Мар 00:45

Часовой пояс: UTC + 3



Вы не можете начинать темы
Вы не можете отвечать на сообщения
Вы не можете редактировать свои сообщения
Вы не можете удалять свои сообщения
Вы не можете голосовать в опросах
Вы не можете прикреплять файлы к сообщениям
Вы не можете скачивать файлы