Сегодня идет свободное скачивание без начисления Download

(Brutal Death / Black Metal) Azarath - Discography - (2001-2009), (FLAC, WavPack) (image+.cue), lossless

Ответить на тему
 
Автор Сообщение

Bot ®

Стаж: 3 года 2 месяца

Сообщений: 11

Создавать темы 11-Янв-2017 20:02

[Цитировать]

Azarath - Discography
Жанр: Brutal Death / Black Metal
2001. Demon Seed

Год выпуска диска: 2001
Производитель диска: Польша
Аудио кодек: FLAC
Тип рипа: image+.cue
Битрейт аудио: lossless
Продолжительность: 30:10
Трэклист:
01. Earthly Morgue 03:57
02. Doombringer 03:17
03. Awaiting Eternity Of Fire 02:30
04. Heavens Light Demise 03:34
05. Taedium Vitae 01:22
06. Destroy Yourself 01:38
07. Deathlike Silence 03:57
08. Traitors 02:43
09. Mindloss 02:38
10. Nightskies Burial Ground 04:34
EAC log
EAC extraction logfile from 20. June 2005, 21:14 for CD
Azarath / Demon Seed
Used drive : HL-DT-STCD-RW GCE-8526B Adapter: 1 ID: 0
Read mode : Secure with NO C2, accurate stream, disable cache
Combined read/write offset correction : 0
Overread into Lead-In and Lead-Out : Yes
Used output format : Internal WAV Routines
44.100 Hz; 16 Bit; Stereo
Use compression offset : 0
Other options :
Fill up missing offset samples with silence : Yes
Delete leading and trailing silent blocks : No
Installed external ASPI interface
Range status and errors
Selected range
Filename C:\RIPEOS\BRUTAL DEATH\AZARATH - DEMON SEED\Azarath - Demon Seed.wav
Peak level 99.8 %
Range quality 100.0 %
CRC 16C52B72
Copy OK
No errors occured
End of status report
2003. Infernal Blasting

Год выпуска диска: 2003
Производитель диска: Польша
Аудио кодек: FLAC
Тип рипа: image+.cue
Битрейт аудио: lossless
Продолжительность: 29:27
Трэклист:
01. Legacy Of Tyrant Goat 02:57
02. Nuclear Revelation 03:01
03. False God / Burn In Hell 02:54
04. Demon Speed 01:57
05. Christscum 03:35
06. Damned To Hell 02:53
07. Infested With Sin 02:43
08. Joy Of Mutilation 03:08
09. Born To Rot 06:13
EAC log
Exact Audio Copy V0.99 prebeta 4 from 23. January 2008
EAC extraction logfile from 14. December 2008, 18:38
Azarath / Infernal Blasting
Used drive : PIONEER DVD-RW DVR-212D Adapter: 3 ID: 0
Read mode : Secure
Utilize accurate stream : Yes
Defeat audio cache : Yes
Make use of C2 pointers : No
Read offset correction : 48
Overread into Lead-In and Lead-Out : No
Fill up missing offset samples with silence : Yes
Delete leading and trailing silent blocks : No
Null samples used in CRC calculations : Yes
Used interface : Installed external ASPI interface
Used output format : User Defined Encoder
Selected bitrate : 128 kBit/s
Quality : High
Add ID3 tag : No
Command line compressor : C:\Program Files\Exact Audio Copy\Flac\flac.exe
Additional command line options : -6 -V %s
TOC of the extracted CD
Track | Start | Length | Start sector | End sector
---------------------------------------------------------
1 | 0:00.00 | 2:57.38 | 0 | 13312
2 | 2:57.38 | 3:01.01 | 13313 | 26888
3 | 5:58.39 | 2:53.70 | 26889 | 39933
4 | 8:52.34 | 1:57.22 | 39934 | 48730
5 | 10:49.56 | 3:35.15 | 48731 | 64870
6 | 14:24.71 | 2:53.39 | 64871 | 77884
7 | 17:18.35 | 2:43.00 | 77885 | 90109
8 | 20:01.35 | 3:08.40 | 90110 | 104249
9 | 23:10.00 | 6:13.69 | 104250 | 132293
Range status and errors
Selected range
Filename M:\my releases\Azarath - Infernal Blasting\Azarath - Infernal Blasting.wav
Peak level 100.0 %
Range quality 99.9 %
Copy CRC 151F532F
Copy OK
No errors occurred
AccurateRip summary
Track 1 cannot be verified as accurate (confidence 1) [EDE027D8], AccurateRip returned [AC30A1FA]
Track 2 cannot be verified as accurate (confidence 1) [A633429E], AccurateRip returned [D2CF4526]
Track 3 cannot be verified as accurate (confidence 1) [18690C52], AccurateRip returned [E5814808]
Track 4 cannot be verified as accurate (confidence 1) [86FFE982], AccurateRip returned [6A74CB20]
Track 5 cannot be verified as accurate (confidence 1) [6B239716], AccurateRip returned [8581F28E]
Track 6 cannot be verified as accurate (confidence 1) [C066CD92], AccurateRip returned [B19F000A]
Track 7 cannot be verified as accurate (confidence 1) [A199289B], AccurateRip returned [66ADC30D]
Track 8 cannot be verified as accurate (confidence 1) [6A2344FD], AccurateRip returned [852FF4F1]
Track 9 cannot be verified as accurate (confidence 1) [729D03F0], AccurateRip returned [1BE1F625]
No tracks could be verified as accurate
You may have a different pressing from the one(s) in the database
End of status report
2006. Diabolic Impious Evil

Год выпуска диска: 2006
Производитель диска: Польша
Аудио кодек: FLAC
Тип рипа: image+.cue
Битрейт аудио: lossless
Продолжительность: 32:47
Трэклист:
01. Whip The Whore 03:51
02. Baptized In Sperm Of The Antichrist 03:00
03. Devil's Stigmata 02:29
04. Anti-Human, Anti-God 04:47
05. For Satan My Blood 01:45
06. Screamin' Legions Death Metal 03:24
07. Intoxicated By Goat Vomit 02:28
08. Angels' Assassins 03:18
09. Beast Inside 02:44
10. Goathorned's Revenge 05:01
EAC log
Exact Audio Copy V0.99 prebeta 4 from 23. January 2008
EAC extraction logfile from 14. December 2008, 18:55
Azarath / Diabolic Impious Evil
Used drive : PIONEER DVD-RW DVR-212D Adapter: 3 ID: 0
Read mode : Secure
Utilize accurate stream : Yes
Defeat audio cache : Yes
Make use of C2 pointers : No
Read offset correction : 48
Overread into Lead-In and Lead-Out : No
Fill up missing offset samples with silence : Yes
Delete leading and trailing silent blocks : No
Null samples used in CRC calculations : Yes
Used interface : Installed external ASPI interface
Used output format : User Defined Encoder
Selected bitrate : 128 kBit/s
Quality : High
Add ID3 tag : No
Command line compressor : C:\Program Files\Exact Audio Copy\Flac\flac.exe
Additional command line options : -6 -V %s
TOC of the extracted CD
Track | Start | Length | Start sector | End sector
---------------------------------------------------------
1 | 0:00.00 | 3:51.69 | 0 | 17393
2 | 3:51.69 | 3:00.41 | 17394 | 30934
3 | 6:52.35 | 2:29.69 | 30935 | 42178
4 | 9:22.29 | 4:46.71 | 42179 | 63699
5 | 14:09.25 | 1:45.54 | 63700 | 71628
6 | 15:55.04 | 3:24.68 | 71629 | 86996
7 | 19:19.72 | 2:28.64 | 86997 | 98160
8 | 21:48.61 | 3:17.71 | 98161 | 113006
9 | 25:06.57 | 2:44.56 | 113007 | 125362
10 | 27:51.38 | 5:01.15 | 125363 | 147952
Range status and errors
Selected range
Filename M:\my releases\Azarath - Diabolic Impious Evil\Azarath - Diabolic Impious Evil.wav
Peak level 100.0 %
Range quality 100.0 %
Copy CRC A9A9D0DF
Copy OK
No errors occurred
AccurateRip summary
Track 1 not present in database
Track 2 not present in database
Track 3 not present in database
Track 4 not present in database
Track 5 not present in database
Track 6 not present in database
Track 7 not present in database
Track 8 not present in database
Track 9 not present in database
Track 10 not present in database
None of the tracks are present in the AccurateRip database
End of status report
2009. Praise The Beast (Ltd.Ed.Digi)

Год выпуска диска: 2009
Производитель диска: Польша
Аудио кодек: WavPack
Тип рипа: image+.cue
Битрейт аудио: lossless
Продолжительность: 45:36
Трэклист:
01. Summoning 00:54
02. I Hate Your Kind 04:24
03. Sacrifice Of Blood 04:05
04. Invocation 03:57
05. Praise The Beast 05:34
06. Queen Of The Sabbath 05:20
07. Azazel 02:54
08. Unholy Trinity 04:15
09. Obey The Flesh 04:03
10. Throne Of Skulls 03:29
11. From Beyond The Coldest Star 02:36
12.Ave Sathanas (Acheron Cover) 04:05
EAC log
EAC extraction logfile from 25. September 2009, 16:17 for CD
Azarath / Praise The Beast
Used drive : PIONEER DVD-RW DVRTD08RS Adapter: 1 ID: 0
Read mode : Secure with NO C2, accurate stream, disable cache
Read offset correction : 48
Overread into Lead-In and Lead-Out : No
Used output format : C:\Program Files\Exact Audio Copy\WAVPACK.EXE (User Defined Encoder)
32 kBit/s
Additional command line options : -h -m %s %d
Other options :
Fill up missing offset samples with silence : Yes
Delete leading and trailing silent blocks : No
Native Win32 interface for Win NT & 2000
Range status and errors
Selected range
Filename D:\oryginaіy\Azarath - Praise The Beast.wav.wav.wav
Peak level 100.0 %
Range quality 99.9 %
CRC 9E517431
Copy OK
No errors occured
End of status report

Обновлено 26.09.09, добавлен 2009. Praise The Beast (Ltd.Ed.Digi), торрент перезалит
[Профиль] [ЛС]
Показать сообщения:    
Ответить на тему

Текущее время: 17-Дек 20:49

Часовой пояс: UTC + 3



Вы не можете начинать темы
Вы не можете отвечать на сообщения
Вы не можете редактировать свои сообщения
Вы не можете удалять свои сообщения
Вы не можете голосовать в опросах
Вы не можете прикреплять файлы к сообщениям
Вы не можете скачивать файлы