Хатико: Самый верный друг / Hachiko: A Dog's Story (2009) [1080p] BDRip

Ответить на тему
 
Автор Сообщение

Bot ®

Стаж: 1 год 5 месяцев

Сообщений: 6

Создавать темы 12-Янв-2017 04:32

[Цитировать]

Хатико: Самый верный друг / Hachiko: A Dog's Story-«Подлинная история веры, преданности и вечной любви»- Русское название: Хатико: Самый верный друг
Оригинальное название: Hachiko: A Dog's Story
Год выпуска: 2009
Жанр: Драма, Семейный-Режиссер: Лассе Халльстрём
Актеры: Ричард Гир, Сара Ремер, Джоан Аллен, Джейсон Александр, Кэри-Хироюки Тагава, Эрик Авари, Роберт Капрон, Давиния МакФэдден, Кевин ДеКосте, Донна Сорбелло-Описание фильма:
Фильм поставлен по известной правдивой истории, которая произошла в Японии в 20-х годах. Пес каждый день провожал и встречал своего хозяина на вокзале. Потом хозяин неожиданно умер, но пес в течение 9 лет КАЖДЫЙ день в 5 часов вечера приходил на вокзал встречать хозяина и ждал его до последнего поезда. Японцы поставили ему памятник на том месте, где он постоянно ждал хозяина.-Продолжительность: 01:33:14
Перевод: Дублированный-
Рейтинг G - Нет возрастных ограничений-Видеокодек: MPEG-4 AVC/H.264
Битрейт видео: 11.9 Mbps
Размер кадра: 1920x1036
Качество видео: BDRip 1080p
Аудио #1: Русский, DTS 5.1, 1510 kbps |Дубляж, Пифагор|
Аудио #2: Английский, DTS 5.1, 1510 kbps |Оригинал|
Субтитры: Russian-
Media Info
General
Unique ID : 246504400523843841585886715148178890202 (0xB97305489C7A0662A558404FB24D1DDA)
Complete name : D:\Hachiko_A_Dogs_Story_BDRip_1080p.mkv
Format : Matroska
File size : 9.64 GiB
Duration : 1h 33mn
Overall bit rate : 14.8 Mbps
Encoded date : UTC 2010-03-03 04:29:22
Writing application : mkvmerge v2.9.8 ('C'est le bon') built on Aug 13 2009 12:49:06
Writing library : libebml v0.7.7 + libmatroska v0.8.1
Video
ID : 1
Format : AVC
Format/Info : Advanced Video Codec
Format profile : High@L4.1
Format settings, CABAC : Yes
Format settings, ReFrames : 4 frames
Codec ID : V_MPEG4/ISO/AVC
Duration : 1h 33mn
Bit rate : 11.9 Mbps
Width : 1 920 pixels
Height : 1 036 pixels
Display aspect ratio : 1.853
Frame rate : 23.976 fps
Color space : YUV
Chroma subsampling : 4:2:0
Bit depth : 8 bits
Scan type : Progressive
Bits/(Pixel*Frame) : 0.249
Stream size : 7.49 GiB (78%)
Writing library : x264 core 88 r1471 1144615
Encoding settings : cabac=1 / ref=4 / deblock=1:-3:-3 / analyse=0x3:0x113 / me=umh / subme=10 / psy=1 / psy_rd=1.05:0.10 / mixed_ref=1 / me_range=48 / chroma_me=1 / trellis=2 / 8x8dct=1 / cqm=2 / deadzone=21,11 / fast_pskip=0 / chroma_qp_offset=-2 / threads=12 / sliced_threads=0 / nr=0 / decimate=1 / mbaff=0 / constrained_intra=0 / bframes=3 / b_pyramid=2 / b_adapt=2 / b_bias=0 / direct=3 / wpredb=1 / wpredp=2 / keyint=250 / keyint_min=25 / scenecut=40 / intra_refresh=0 / rc_lookahead=60 / rc=2pass / mbtree=1 / bitrate=11858 / ratetol=2.0 / qcomp=0.70 / qpmin=10 / qpmax=51 / qpstep=4 / cplxblur=20.0 / qblur=0.5 / vbv_maxrate=50000 / vbv_bufsize=50000 / ip_ratio=1.40 / aq=1:1.00
Language : English
Audio #1
ID : 2
Format : DTS
Format/Info : Digital Theater Systems
Codec ID : A_DTS
Duration : 1h 33mn
Bit rate mode : Constant
Bit rate : 1 510 Kbps
Channel(s) : 6 channels
Channel positions : Front: L C R, Side: L R, LFE
Sampling rate : 48.0 KHz
Bit depth : 24 bits
Compression mode : Lossy
Delay relative to video : 14s 0ms
Stream size : 1 007 MiB (10%)
Language : Russian
Audio #2
ID : 3
Format : DTS
Format/Info : Digital Theater Systems
Codec ID : A_DTS
Duration : 1h 33mn
Bit rate mode : Constant
Bit rate : 1 510 Kbps
Channel(s) : 6 channels
Channel positions : Front: L C R, Side: L R, LFE
Sampling rate : 48.0 KHz
Bit depth : 24 bits
Compression mode : Lossy
Stream size : 1 007 MiB (10%)
Language : English
Text
ID : 4
Format : UTF-8
Codec ID : S_TEXT/UTF8
Codec ID/Info : UTF-8 Plain Text
Language : Russian
Скриншоты Время раздачи: 24/7Не Забудьте Нажать | Вам не трудно, а мне приятно!© Оформление by Pashqa
[Профиль] [ЛС]
Показать сообщения:    
Ответить на тему

Текущее время: 25-Сен 18:10

Часовой пояс: UTC + 3



Вы не можете начинать темы
Вы не можете отвечать на сообщения
Вы не можете редактировать свои сообщения
Вы не можете удалять свои сообщения
Вы не можете голосовать в опросах
Вы не можете прикреплять файлы к сообщениям
Вы не можете скачивать файлы