Сегодня идет свободное скачивание без начисления Download

Эффект колибри / Hummingbird (2013) HDRip

Ответить на тему
 
Автор Сообщение

Bot ®

Стаж: 1 год 7 месяцев

Сообщений: 7

Создавать темы 12-Янв-2017 04:47

[Цитировать]

Эффект колибри / Hummingbird (2013) HDRip- Год выпуска: 2013
Производство: США, Великобритания / IM Global, Lionsgate, Shoebox Films
Жанр: Триллер, Боевик, Криминал
Перевод: Дублированный (лицензия)
Субтитры: Отсутствуют
Дата мировой премьеры: 9 мая 2013
Дата российской премьеры: 12 июня 2013, «Вольга»
Дата выхода DVD релиза: 26 сентября 2013, «Вольга»
Режиссер: Стивен Найт
Продюсер: Гай Хили, Пол Уэбстер, Стюарт Форд
Актеры: Джейсон Стэйтем, Ли Асквит-Коу, Вики МакКлюр, Йен Пири, Бенедикт Вонг, Сенем Темиз, Шиван Хьюлетт, Пол Блэкуэлл, Агата Бузек, Эдди Рубен
Описание фильма:
Бывший спецназовец Джоуи Джонс пытается начать новую жизнь. Он соглашается работать на азиатскую мафию. Но проникая все глубже в криминальный мир родного города, он понимает, что не может спокойно смотреть на творящееся в нем беззаконие. Когда от рук бандитов погибает его возлюбленная Изабель, Джоуи решает восстановить справедливость. Он начинает расследование, которое ведет его на самый верх преступного синдиката.

Продолжительность: 01:40:02
Качество видео: HDRip
Видеокодек: Xvid
Битрейт видео: ~1691 kb/s
Размер кадра: 720x400
Аудиокодек: AC3 5.1
Битрейт аудио: 448 kb/s
Сэмпл: Скачать
MediaInfo
Общее
Полное имя : D:\Фильмы\Effekt.Kollibri.2013.D.HDRip.1500MB.avi
Формат : AVI
Формат/Информация : Audio Video Interleave
Размер файла : 1,50 Гбайт
Продолжительность : 1 ч. 40 м.
Общий поток : 2148 Кбит/сек
Название фильма : Eff.K0L1bR1.2013.D.HDRip.1.45Gb.INTERCINEMA
Режиссёр : INTERCINEMA
Программа кодирования : VirtualDubModRus 1.5.10.2 (build 2542/release)
Библиотека кодирования : VirtualDubMod build 2542/release
Видео
Идентификатор : 0
Формат : MPEG-4 Visual
Профиль формата : Advanced Simple@L5
Параметр BVOP формата : 2
Параметр QPel формата : Нет
Параметр GMC формата : Без точки перехода
Параметр матрицы формата : Default (MPEG)
Идентификатор кодека : XVID
Идентификатор кодека/Подсказка : XviD
Продолжительность : 1 ч. 40 м.
Битрейт : 1691 Кбит/сек
Ширина : 720 пикселей
Высота : 400 пикселей
Соотношение сторон : 16:9
Частота кадров : 23,976 кадра/сек
Цветовое пространство : YUV
Субдискретизация насыщенности : 4:2:0
Битовая глубина : 8 бит
Тип развёртки : Прогрессивная
Метод сжатия : С потерями
Бит/(Пиксели*Кадры) : 0.245
Размер потока : 1,18 Гбайт (79%)
Библиотека кодирования : XviD 1.2.1 (UTC 2008-12-04)
Аудио
Идентификатор : 1
Формат : AC-3
Формат/Информация : Audio Coding 3
Расширение режима : CM (complete main)
Параметр Endianness формата : Big
Идентификатор кодека : 2000
Продолжительность : 1 ч. 40 м.
Вид битрейта : Постоянный
Битрейт : 448 Кбит/сек
Каналы : 6 каналов
Расположение каналов : Front: L C R, Side: L R, LFE
Частота : 48,0 КГц
Битовая глубина : 16 бит
Метод сжатия : С потерями
Размер потока : 321 Мбайт (21%)
Выравнивание : Разделение по промежуткам
Продолжительность промежутка : 42 мс. (1,00 видеокадр)
Время предзагрузки промежутка : 500 мс.
Скриншоты:
Время раздачи: 24/7
(до 5 скачавших)
Эффект колибри на NoNaMe Club
[Профиль] [ЛС]
Показать сообщения:    
Ответить на тему

Текущее время: 26-Мар 10:12

Часовой пояс: UTC + 3



Вы не можете начинать темы
Вы не можете отвечать на сообщения
Вы не можете редактировать свои сообщения
Вы не можете удалять свои сообщения
Вы не можете голосовать в опросах
Вы не можете прикреплять файлы к сообщениям
Вы не можете скачивать файлы