Сегодня идет свободное скачивание без начисления Download

Бен-Гур / Ben-Hur (2016) BDRip 1080p | iTunes

Ответить на тему
 
Автор Сообщение

Bot ®

Стаж: 4 года 8 месяцев

Сообщений: 26090

Откуда: СССР

Создавать темы 12-Янв-2017 10:46

[Цитировать]

Информация о фильме
Название: Бен-Гур
Оригинальное название: Ben-Hur
Год выхода: 2016
Жанр: Драма, приключения, история
Режиссер: Тимур Бекмамбетов
В ролях: Джек Хьюстон, Тоби Кеббелл, Родриго Санторо, Назанин Бониади, Айелет Зурер, Йохан Филип Асбек, София Блэк-Д`Элиа, Морган Фримен, Марван Кензари, Мойзес Ариас
О фильме:
Иудея, 26 год н.э. Иуда Бен-Гур - мажор из знатного рода иерусалимских депутатов, разбогатевших на торговле кожаными туниками из Турции. Вся его жизнь состоит из веселья, дорогих лошадей и стрельбы по живым мишеням. Его сводный брат-римлянин Мессала, устав от взрослых развлечений, подается в римскую армию по духовным соображениям. Спустя несколько лет он возвращается в Иерусалим в качестве трибуна, чтобы возглавить ограниченный контингент римских миротворцев, осуществляющих временную миссию по поддержанию правопорядка на территории государства-клиента. Помимо интернационального долга в обязанности трибуна входит и борьба с терроризмом. Мессала обращается за помощью к своему сводному брату, но для того Иудея оказывается превыше всего. А тут еще и неудачное покушение на прокуратора, в котором ложно обвиняют всю семью Гуров. Родственные связи Иуде не помогают. Ему предстоит пережить годы скоростной гребли на галерах, чтобы вернуться в родной дом, собрать родню по кусочкам и отомстить предателю в самой фееричной гонке на колесницах, которую только видел Рим.

Страна: США
Студия: LightWorkers Media, Metro-Goldwyn-Mayer (MGM), Paramount Pictures
Продолжительность: 02:04:43
Перевод: Дублированный | iTunes
Файл
Качество: BDRip 1080p
Видео: MPEG-4 AVC, 1920x800, 16.5 Mbit/s, 23.976 fps
Звук:
Аудио #01: 48 kHz, AC3, 5.1, 384 Kbps | Дублированный |
Аудио #02: 48 kHz, DTS, 5.1, 1510 kbps | Оригинал |
Субтитры: Английские
MI
Общее
Уникальный идентификатор : 197964001937155702043503375332170726920 (0x94EE7ADC4F2135FA9AE227A81246FE08)
Полное имя : F:VideoBen.Hur.2016.DD.BDRip.1080p.ExKinoRay.mkv
Формат : Matroska
Версия формата : Version 4 / Version 2
Размер файла : 16,1 Гбайт
Продолжительность : 2 ч. 4 м.
Общий поток : 18,4 Мбит/сек
Название фильма : Ben-Hur.2016 ***селезень***
Дата кодирования : UTC 2017-01-12 05:22:19
Программа кодирования : mkvmerge v8.3.0 ('Over the Horizon') 64bit
Библиотека кодирования : libebml v1.3.1 + libmatroska v1.4.2
Видео
Идентификатор : 1
Формат : AVC
Формат/Информация : Advanced Video Codec
Профиль формата : High@L4.1
Параметр CABAC формата : Да
Параметр ReFrames формата : 5 кадров
Идентификатор кодека : V_MPEG4/ISO/AVC
Продолжительность : 2 ч. 4 м.
Битрейт : 16,5 Мбит/сек
Ширина : 1920 пикселей
Высота : 800 пикселей
Соотношение сторон : 2,40:1
Режим частоты кадров : Постоянный
Частота кадров : 23,976 (24000/1001) кадра/сек
Цветовое пространство : YUV
Субдискретизация насыщенности : 4:2:0
Битовая глубина : 8 бит
Тип развёртки : Прогрессивная
Бит/(Пиксели*Кадры) : 0.449
Размер потока : 14,4 Гбайт (90%)
Заголовок : Ben-Hur.2016 ***селезень***
Библиотека кодирования : x264 core 148 r2705+54 9f484c1 t_mod_Custom [8-bit@all X86_64]
Настройки программы : cabac=1 / ref=5 / deblock=1:-3:-3 / analyse=0x3:0x133 / me=umh / subme=11 / psy=1 / fade_compensate=0.00 / psy_rd=1.05:0.00 / mixed_ref=1 / me_range=32 / chroma_me=1 / trellis=2 / 8x8dct=1 / cqm=0 / deadzone=21,11 / fast_pskip=0 / chroma_qp_offset=-2 / threads=12 / lookahead_threads=2 / sliced_threads=0 / nr=0 / decimate=0 / interlaced=0 / bluray_compat=0 / constrained_intra=0 / fgo=0 / bframes=8 / b_pyramid=2 / b_adapt=2 / b_bias=0 / direct=3 / weightb=1 / open_gop=0 / weightp=2 / keyint=250 / keyint_min=23 / scenecut=40 / intra_refresh=0 / rc_lookahead=60 / rc=crf / mbtree=0 / crf=16.1000 / qcomp=0.65 / qpmin=0:0:0 / qpmax=69:69:69 / qpstep=4 / vbv_maxrate=62500 / vbv_bufsize=78125 / crf_max=0.0 / nal_hrd=none / filler=0 / ip_ratio=1.30 / pb_ratio=1.20 / aq=3:0.80 / aq-sensitivity=10.00 / aq-factor=1.00:1.00:1.00 / aq2=0 / aq3=0 / zones=66,882,crf=14/16441,16922,crf=13/16981,18160,crf=16.4/18309,22454,crf=16.4/22455,22607,crf=14/27836,28926,crf=16.4/30555,31865,crf=13/47649,49327,crf=16.4/49969,50030,crf=14/50132,50177,crf=14/50360,50414,crf=14/50602,50636,crf=14/58332,60663,crf=16.4/62332,64565,crf=14/64566,64636,crf=13/64695,64926,crf=14/64927,73042,crf=14/73043,73093,crf=13/73094,73276,crf=14/73277,73338,crf=13/73339,74403,crf=14/74404,74435,crf=13/74436,74494,crf=15/74495,74544,crf=14/74545,75984,crf=14/75985,76113,crf=12/77000,77596,crf=13/77685,78411,crf=13/78685,78872,crf=13/79045,79140,crf=13/82322,90341,crf=16.4/92347,96172,crf=16.4/108707,111642,crf=16.4/119450,120388,crf=16.4/127836,127935,crf=13/129352,130682,crf=15/131000,131085,crf=14/132059,138635,crf=16.4/138636,138667,crf=13/145112,145146,crf=13/146413,146452,crf=13/148874,148944,crf=13/149019,149075,crf=10/149807,149855,crf=13/156927,159267,crf=16.4/159855,160004,crf=14/163497,163583,crf=13/167550,172075,crf=16.4/172510,172552,crf=13/172560,179130,crf=22
Язык : English
Default : Да
Forced : Нет
Цветовой диапазон : Limited
Коэффициенты матрицы : BT.709
Аудио #1
Идентификатор : 2
Формат : AC-3
Формат/Информация : Audio Coding 3
Расширение режима : CM (complete main)
Параметр Endianness формата : Big
Идентификатор кодека : A_AC3
Продолжительность : 2 ч. 4 м.
Вид битрейта : Постоянный
Битрейт : 384 Кбит/сек
Каналы : 6 каналов
Расположение каналов : Front: L C R, Side: L R, LFE
Частота : 48,0 КГц
Частота кадров : 31,250 кадров/сек (1536 spf)
Битовая глубина : 16 бит
Метод сжатия : С потерями
Размер потока : 343 Мбайт (2%)
Заголовок : Dub [iTunes]
Язык : Russian
Default : Да
Forced : Нет
Аудио #2
Идентификатор : 3
Формат : DTS
Формат/Информация : Digital Theater Systems
Режим : 16
Параметр Endianness формата : Big
Идентификатор кодека : A_DTS
Продолжительность : 2 ч. 4 м.
Вид битрейта : Постоянный
Битрейт : 1509 Кбит/сек
Каналы : 6 каналов
Расположение каналов : Front: L C R, Side: L R, LFE
Частота : 48,0 КГц
Частота кадров : 93,750 кадра/сек (512 spf)
Битовая глубина : 24 бит
Метод сжатия : С потерями
Размер потока : 1,31 Гбайт (8%)
Заголовок : Original
Язык : English
Default : Нет
Forced : Нет
Текст #1
Идентификатор : 4
Формат : UTF-8
Идентификатор кодека : S_TEXT/UTF8
Идентификатор кодека/Информация : UTF-8 Plain Text
Продолжительность : 1 ч. 56 м.
Битрейт : 45 бит/сек
Count of elements : 1438
Размер потока : 38,6 Кбайт (0%)
Заголовок : Full
Язык : English
Default : Нет
Forced : Нет
Текст #2
Идентификатор : 5
Формат : UTF-8
Идентификатор кодека : S_TEXT/UTF8
Идентификатор кодека/Информация : UTF-8 Plain Text
Продолжительность : 1 ч. 56 м.
Битрейт : 51 бит/сек
Count of elements : 1644
Размер потока : 44,3 Кбайт (0%)
Заголовок : SDH
Язык : English
Default : Нет
Forced : Нет
Меню
00:00:00.000 : en:00:00:00.000
00:07:03.882 : en:00:07:03.882
00:15:42.942 : en:00:15:42.942
00:19:47.895 : en:00:19:47.895
00:27:25.853 : en:00:27:25.853
00:33:09.362 : en:00:33:09.362
00:41:07.215 : en:00:41:07.215
00:48:20.064 : en:00:48:20.064
00:55:21.652 : en:00:55:21.652
01:05:41.229 : en:01:05:41.229
01:13:15.891 : en:01:13:15.891
01:22:26.900 : en:01:22:26.900
01:31:30.193 : en:01:31:30.193
01:39:55.656 : en:01:39:55.656
01:46:30.801 : en:01:46:30.801
01:54:54.638 : en:01:54:54.638
[Профиль] [ЛС]
Показать сообщения:    
Ответить на тему

Текущее время: 25-Янв 04:21

Часовой пояс: UTC + 3



Вы не можете начинать темы
Вы не можете отвечать на сообщения
Вы не можете редактировать свои сообщения
Вы не можете удалять свои сообщения
Вы не можете голосовать в опросах
Вы не можете прикреплять файлы к сообщениям
Вы не можете скачивать файлы