Сегодня идет свободное скачивание без начисления Download

Fate/EXTRA Last Encore | Судьба: Дополнение - Последний вызов на бис [2018, TV, 1 из 10] HDTV 720p 10bit raw

Ответить на тему
 
Автор Сообщение

Bot ®

Стаж: 3 года 5 месяцев

Сообщений: 7

Создавать темы 08-Фев-2018 06:17

[Цитировать]

Fate/EXTRA Last Encore
Судьба: Дополнение - Последний вызов на бис
- Жанр: приключения, фэнтези
Тип: ТВ
Продолжительность: 10 серий по 25 мин.
Количество серий: 1 из 10
Выпуск: c 28.01.2018
Cтудия:
Автор оригинала: Насу Киноко / Nasu Kinoko / 奈須きのこ
Режиссер: Симбо Акиюки / Shinbo Akiyuki / 新房昭之
Ссылки: World-Art, ANN, Ani-DB, MAL-Описание:
В результате таинственного инцидента мана, некогда наполнявшая мир, окончательно исчезла к 2030 году. Но битву за всемогущий Грааль это не остановило.
В виртуальной академии Цукумихара, созданной организацией «Лунная Ячейка», проходит новая война за всемогущий исполнитель желаний, реализованная с помощью системы призыва героев под названием «Серийный Фантазм» (СЕРАФ). И теперь уже не семь, а сто двадцать восемь мастеров сойдутся в битве на Арене ради обладания Святым Граалем.
© KG-Portal-Качество видео: HDTV
Видео: h264, High 10@L5.0, 1280x720, 23,976 кадра/сек, 1874 Kбит/сек
Аудио: AAC, 2 канала, 48 KГц, 256 Kбит/сек
Язык озвучки: Японский
Cубтитры: русские (подключаемые)
Перевод: AniPlay.TV
Скриншоты:
Ещё скриншоты
Эпизоды:
01. At the Bottom of an Ancient Limbo
MediaInfo на первую серию
Общее
Уникальный идентификатор : 34976179100456696422171215240993496843 (0x1A502AC4E6D82CB489E595921D64DF0B)
Полное имя : E:\Fate - Extra Last Encore\[Chyuu] Fate⁄EXTRA Last Encore - 01 [720p][AB90BA3C].mkv
Формат : Matroska
Версия формата : Version 4 / Version 2
Размер файла : 361 Мбайт
Продолжительность : 23 м.
Общий поток : 2131 Кбит/сек
Название фильма : [Chyuu] Fate⁄EXTRA Last Encore - 01
Дата кодирования : UTC 2018-01-30 12:58:12
Программа кодирования : mkvmerge v20.0.0 ('I Am The Sun') 32-bit
Библиотека кодирования : libebml v1.3.5 + libmatroska v1.4.8
Attachments : DEVROYE.TTF / Rosario-Bold.ttf / ROSARIO-BOLDITALIC.ttf / CaviarDreams.ttf / Designosaur-Regular.ttf
Видео
Идентификатор : 1
Формат : AVC
Формат/Информация : Advanced Video Codec
Профиль формата : High 10@L5
Параметр CABAC формата : Да
Параметр ReFrames формата : 16 кадров
Идентификатор кодека : V_MPEG4/ISO/AVC
Продолжительность : 23 м.
Битрейт : 1874 Кбит/сек
Ширина : 1280 пикселей
Высота : 720 пикселей
Соотношение сторон : 16:9
Режим частоты кадров : Постоянный
Частота кадров : 23,976 (24000/1001) кадра/сек
Цветовое пространство : YUV
Субдискретизация насыщенности : 4:2:0
Битовая глубина : 10 бит
Тип развёртки : Прогрессивная
Бит/(Пиксели*Кадры) : 0.085
Размер потока : 317 Мбайт (88%)
Библиотека кодирования : x264 core 152 r2854 e9a5903
Настройки программы : cabac=1 / ref=16 / deblock=1:-1:-1 / analyse=0x3:0x133 / me=umh / subme=10 / psy=1 / psy_rd=0.70:0.00 / mixed_ref=1 / me_range=32 / chroma_me=1 / trellis=2 / 8x8dct=1 / cqm=0 / deadzone=21,11 / fast_pskip=0 / chroma_qp_offset=-2 / threads=8 / lookahead_threads=2 / sliced_threads=0 / nr=0 / decimate=0 / interlaced=0 / bluray_compat=0 / constrained_intra=0 / bframes=16 / b_pyramid=2 / b_adapt=2 / b_bias=0 / direct=3 / weightb=1 / open_gop=0 / weightp=2 / keyint=360 / keyint_min=23 / scenecut=40 / intra_refresh=0 / rc_lookahead=60 / rc=crf / mbtree=1 / crf=18.0 / qcomp=0.70 / qpmin=0 / qpmax=81 / qpstep=4 / ip_ratio=1.40 / aq=3:0.85
Default : Да
Forced : Нет
Цветовой диапазон : Limited
Коэффициенты матрицы : BT.709
Аудио
Идентификатор : 2
Формат : AAC
Формат/Информация : Advanced Audio Codec
Профиль формата : LC
Идентификатор кодека : A_AAC
Продолжительность : 23 м.
Битрейт : 252 Кбит/сек
Каналы : 2 канала
Расположение каналов : Front: L R
Частота : 48,0 КГц
Частота кадров : 46,875 кадров/сек (1024 spf)
Метод сжатия : С потерями
Размер потока : 42,7 Мбайт (12%)
Язык : Japanese
Default : Да
Forced : Нет
Текст
Идентификатор : 3
Формат : ASS
Идентификатор кодека : S_TEXT/ASS
Идентификатор кодека/Информация : Advanced Sub Station Alpha
Продолжительность : 21 м.
Битрейт : 110 бит/сек
Count of elements : 247
Метод сжатия : Без потерь
Размер потока : 17,5 Кбайт (0%)
Язык : English
Default : Да
Forced : Нет
Меню
00:00:00.033 : en:Intro
00:01:47.983 : en:Part A
00:08:28.967 : en:Part B
00:21:22.948 : en:ED
00:22:52.871 : en:Part C
Время раздачи: круглосуточно
[Профиль] [ЛС]
Показать сообщения:    
Ответить на тему

Текущее время: 20-Фев 02:40

Часовой пояс: UTC + 3



Вы не можете начинать темы
Вы не можете отвечать на сообщения
Вы не можете редактировать свои сообщения
Вы не можете удалять свои сообщения
Вы не можете голосовать в опросах
Вы не можете прикреплять файлы к сообщениям
Вы не можете скачивать файлы