Сегодня идет свободное скачивание без начисления Download

XXIII Зимние Олимпийские игры 2018. Пхёнчхан (Корея). Биатлон. Мужчины. Спринт (11.02.2018) HDTVRip [H.264/720p-LQ] [hand made 50fps]

Ответить на тему
 
Автор Сообщение

Bot ®

Стаж: 5 лет 10 месяцев

Сообщений: 59891

Откуда: с того берега моря

Создавать темы 13-Фев-2018 09:18

[Цитировать]

XXIII Зимние Олимпийские игры 2018. Пхёнчхан (Корея). Биатлон. Мужчины. Спринт (11.02.2018) HDTVRip [H.264/720p-LQ] - Телекомпания: Первый канал HD
Жанр: Спорт
Комментаторы: Дмитрий Терехов, Николай Круглов
Описание: 11 февраля 2018 года, воскресенье. 14:15 МСК
XXIII Зимние Олимпийские игры 2018. Пхёнчхан (Корея).
Биатлон. Мужчины. Спринт 10 км
Арена: Центр биатлона "Альпензия" (Пхёнчхан, Южная Корея)
Релиз от: Багга
Продолжительность: 00:57:47
Качество видео: HDTVRip
Язык озвучки: Русский
Субтитры: отсутствуют
Видео: AVC/H.264, 1280x720 (16:9), ~3500 Kbps, 50 fps
Аудио: AAC, 2 ch, 48 kHz, 128 Kbps
Mediainfo:
Общее
Уникальный идентификатор : 13460309495388527900826751914038313100 (0xA205C7EEDECD13DDAA8A3DDEC90C08C)
Полное имя : F:\2018 Winter Olympics Games. PyeongChang (KOR)\Биатлон\(11.02.2018)_WOG 2018.Biathlon. Mens 10km Sprint_1HD.mkv
Формат : Matroska
Версия формата : Version 4 / Version 2
Размер файла : 1,46 Гбайт
Продолжительность : 57 м. 46 с.
Общий поток : 3623 Кбит/сек
Дата кодирования : UTC 2018-02-12 14:01:59
Программа кодирования : mkvmerge v20.0.0 ('I Am The Sun') 32-bit
Библиотека кодирования : libebml v1.3.5 + libmatroska v1.4.8
Видео
Идентификатор : 1
Формат : AVC
Формат/Информация : Advanced Video Codec
Профиль формата : High@L3.2
Настройки формата : CABAC / 4 Ref Frames
Параметр CABAC формата : Да
Параметр RefFrames формата : 4 кадра
Идентификатор кодека : V_MPEG4/ISO/AVC
Продолжительность : 57 м. 46 с.
Битрейт : 3500 Кбит/сек
Ширина : 1280 пикселей
Высота : 720 пикселей
Соотношение сторон : 16:9
Режим частоты кадров : Постоянный
Частота кадров : 50,000 кадров/сек
Цветовое пространство : YUV
Субдискретизация насыщенности : 4:2:0
Битовая глубина : 8 бит
Тип развёртки : Прогрессивная
Бит/(Пиксели*Кадры) : 0.076
Размер потока : 1,41 Гбайт (96%)
Библиотека кодирования : x264 core 146 r2538 121396c
Настройки программы : cabac=1 / ref=3 / deblock=1:0:0 / analyse=0x3:0x113 / me=hex / subme=7 / psy=1 / psy_rd=1.00:0.00 / mixed_ref=1 / me_range=16 / chroma_me=1 / trellis=1 / 8x8dct=1 / cqm=0 / deadzone=21,11 / fast_pskip=1 / chroma_qp_offset=-2 / threads=12 / lookahead_threads=2 / sliced_threads=0 / nr=0 / decimate=1 / interlaced=0 / bluray_compat=0 / constrained_intra=0 / bframes=3 / b_pyramid=2 / b_adapt=1 / b_bias=0 / direct=1 / weightb=1 / open_gop=0 / weightp=2 / keyint=250 / keyint_min=25 / scenecut=40 / intra_refresh=0 / rc_lookahead=40 / rc=abr / mbtree=1 / bitrate=3500 / ratetol=1.0 / qcomp=0.60 / qpmin=0 / qpmax=69 / qpstep=4 / ip_ratio=1.40 / aq=1:1.00
Default : Да
Forced : Нет
Аудио
Идентификатор : 2
Формат : AAC
Формат/Информация : Advanced Audio Codec
Профиль формата : LC
Идентификатор кодека : A_AAC-2
Продолжительность : 57 м. 46 с.
Битрейт : 128 Кбит/сек
Каналы : 2 канала
Расположение каналов : Front: L R
Частота : 48,0 КГц
Частота кадров : 46,875 кадров/сек (1024 SPF)
Метод сжатия : С потерями
Задержка видео : 9 мс.
Размер потока : 52,9 Мбайт (4%)
Язык : Russian
Default : Да
Forced : Нет
Скриншоты:
[Профиль] [ЛС]
Показать сообщения:    
Ответить на тему

Текущее время: 20-Июн 18:14

Часовой пояс: UTC + 3



Вы не можете начинать темы
Вы не можете отвечать на сообщения
Вы не можете редактировать свои сообщения
Вы не можете удалять свои сообщения
Вы не можете голосовать в опросах
Вы не можете прикреплять файлы к сообщениям
Вы не можете скачивать файлы