Сегодня идет свободное скачивание без начисления Download

Кавалерия / 12 Strong (2018) CamRip [MVO] [AD]

Ответить на тему
 
Автор Сообщение

Bot ®

Стаж: 2 года 10 месяцев

Сообщений: 12

Создавать темы 13-Фев-2018 19:31

[Цитировать]

Кавалерия / 12 Strong (2018) CamRip [MVO] [AD] - Производство: США / Alcon Entertainment, Black Label Media, Jerry Bruckheimer Films
Жанр: Боевик, Драма, Военный
Режиссер: Николай Фьюлси
Актеры: Крис Хемсворт, Майкл Шеннон, Уильям Фихтнер, Эльза Патаки, Тейлор Шеридан, Джофф Стульц, Майкл Пенья, Роб Риггл, Треванте Роудс, Джек Кеси
Описание:
Правдивая драма об отряде американских солдат специального назначения, которых после трагедии 11 сентября 2001 года перебрасывают на антитеррористическую миссию в Афганистан. Элитные бойцы, вынужденные наступать верхом на лошадях, сталкиваются с целой армией талибов.
Фильм основан на реальных событиях.

Рейтинг MPAA: R (лицам до 17 лет обязательно присутствие взрослого)
Дата мировой премьеры: 17.01.2018
Дата российской премьеры: 08.03.2018
Релиз от: KOSHARA
Продолжительность: 02:01:42
Качество видео: CamRip
Перевод: Многоголосый закадровый, любительский (КОЛОБОК)
Субтитры: Арабские (неотключаемые), Французские (неотключаемые)
Реклама: присутствуют аудио, видео и текстовые вставки рекламы
Видео: Xvid, 720x368, ~1470 Kbps
Аудио: AC3, 2 ch, 128 Kbps
Mediainfo:
General
Complete name : /media/win/TORRENT/UPLOAD TORRENTS/12.Strong.2017.P.CAMRip.14OOMB.avi
Format : AVI
Format/Info : Audio Video Interleave
File size : 1.37 GiB
Duration : 2 h 1 min
Overall bit rate : 1 608 kb/s
Writing application : VirtualDubMod 1.5.10.2 (build 2540/release)
Writing library : VirtualDubMod build 2540/release
Video
ID : 0
Format : MPEG-4 Visual
Format profile : Advanced Simple@L5
Format settings : BVOP2
Format settings, BVOP : 2
Format settings, QPel : No
Format settings, GMC : No warppoints
Format settings, Matrix : Default (MPEG)
Codec ID : XVID
Codec ID/Hint : XviD
Duration : 2 h 1 min
Bit rate : 1 471 kb/s
Width : 720 pixels
Height : 368 pixels
Display aspect ratio : 1.957
Frame rate : 23.976 (24000/1001) FPS
Color space : YUV
Chroma subsampling : 4:2:0
Bit depth : 8 bits
Scan type : Progressive
Compression mode : Lossy
Bits/(Pixel*Frame) : 0.232
Stream size : 1.25 GiB (91%)
Writing library : XviD 1.2.1 (UTC 2008-12-04)
Audio
ID : 1
Format : AC-3
Format/Info : Audio Coding 3
Codec ID : 2000
Duration : 2 h 1 min
Bit rate mode : Constant
Bit rate : 128 kb/s
Channel(s) : 2 channels
Channel positions : Front: L R
Sampling rate : 48.0 kHz
Frame rate : 31.250 FPS (1536 SPF)
Bit depth : 16 bits
Compression mode : Lossy
Stream size : 111 MiB (8%)
Alignment : Split accross interleaves
Interleave, duration : 42 ms (1.00 video frame)
Interleave, preload duration : 500 ms
Service kind : Complete Main
Скриншоты:
Все одноименные релизы в КлубеВремя раздачи: с 09:00 до 22:00 до пяти скачавших (до появления первых 3-5 скачавших)
[Профиль] [ЛС]
Показать сообщения:    
Ответить на тему

Текущее время: 20-Июн 18:08

Часовой пояс: UTC + 3



Вы не можете начинать темы
Вы не можете отвечать на сообщения
Вы не можете редактировать свои сообщения
Вы не можете удалять свои сообщения
Вы не можете голосовать в опросах
Вы не можете прикреплять файлы к сообщениям
Вы не можете скачивать файлы