Сегодня идет свободное скачивание без начисления Download

Украденное счастье / Украдене щастя (Исаак Шмарук, Гнат Юра) [1952, СССР, драма, экранизация, VHSRip]

Ответить на тему
 
Автор Сообщение

Bot ®

Стаж: 4 года 1 месяц

Сообщений: 8

Создавать темы 13-Фев-2018 19:45

[Цитировать]

Украденное счастье / Украдене щастя
Страна: СССР
Студия: Киевская киностудия художественных фильмов
Жанр: Драма, экранизация
Год выпуска: 1952
Продолжительность: 01:41:00
Язык: Украинский
Субтитры: Русские
Режиссёр: Исаак Шмарук, Гнат Юра
В ролях: Амвросий Бучма, Наталья Ужвий, Виктор Добровольский, Николай Яковченко, Любовь Комарецкая, Иван Маркевич, Варвара Чайка, Константин Кульчицкий
Описание: Фильм-спектакль по одноименной классической драме Ивана Франко. Действие разворачивается в Карпатах в 1870-х годах. В центре сюжета - классический любовный треугольник, сплетающий воедино жизни трех людей: Анны, ее мужа Николая и возлюбленного Анны - Михаила.
Субтитры - kingsun
Качество видео: VHSRip
Формат видео: AVI
Видео: XviD MPEG-4, 720x540, 1799 kbps avg, 25 fps, 0.185 bit/pixel
Аудио: MPEG Layer 3, 48 kHz, 2 ch. 192.00 kbps avg
Субтитры: Русские (внешние, .SRT)
MediaInfo
Общее
Полное имя : D:\РАЗДАЧИ\Украденное счастье (1952)\Украденное счастье (1952)rutreker\Украденное счастье (1952)rutreker\Украденное счастье (1952).avi
Формат : AVI
Формат/Информация : Audio Video Interleave
Размер файла : 1,42 Гбайт
Продолжительность : 1 ч. 41 м.
Общий поток : 2001 Кбит/сек
Библиотека кодирования : VirtualDub build 31953/release
Видео
Идентификатор : 0
Формат : MPEG-4 Visual
Профиль формата : Advanced Simple@L5
Параметр BVOP формата : 2
Параметр QPel формата : Нет
Параметр GMC формата : Без точки перехода
Параметр матрицы формата : Default (MPEG)
Режим смешивания : Сжатый битовый поток
Идентификатор кодека : XVID
Идентификатор кодека/Подсказка : XviD
Продолжительность : 1 ч. 41 м.
Битрейт : 1799 Кбит/сек
Ширина : 720 пикс.
Высота : 540 пикс.
Соотношение сторон : 4:3
Частота кадров : 25,000 кадр/сек
Цветовое пространство : YUV
Подвыборка цветности : 4:2:0
Битовая глубина : 8 бит
Тип развёртки : Прогрессивная
Метод сжатия : С потерями
Бит/(Пиксели*Кадры) : 0.185
Размер потока : 1,27 Гбайт (90%)
Библиотека кодирования : XviD 64
Аудио
Идентификатор : 1
Формат : MPEG Audio
Версия формата : Version 1
Профиль формата : Layer 3
Режим : Joint stereo
Идентификатор кодека : 55
Идентификатор кодека/Подсказка : MP3
Продолжительность : 1 ч. 41 м.
Вид битрейта : Постоянный
Битрейт : 192 Кбит/сек
Канал(ы) : 2 канала(ов)
Частота : 48,0 КГц
Метод сжатия : С потерями
Размер потока : 139 Мбайт (10%)
Выравнивание : Разделение по промежуткам
Продолжительность промежутка : 40 мс. (1,00 видеокадр)
Время предзагрузки промежутка : 500 ms
Фрагмент субтитров
141684||155375||Ой, там за горой, да за каменной||
173051||185063||Она ему стелет белую постеленьку,||
192037||200722||А он ей готовит кожану нагайку.||
208870||213930||-Что это вы, придумали такую, плаксивую!\~-Как по покойнику вопят.||
213930||219032||-Ну, закончим, сестрички, эту спевку,\~она очень красивая.||
219614||223188||-А такая задушевная, аж плакать хочется.||
224462||230596||-Подождите-ка, как замуж выйдите,\~и на своих плечах того добра испытываете,||
231390||233483||то вам, еще, и не так плакать захочется.||
233656||236256||-Вот тебе, и на!\~-А вы, это откуда знаете?||
237652||239510||-Разве вы, это испытали?||
239510||247307||-Я, о себе не говорю, а о том, что испытала,\~только мне достаточно знать, и богу.||
248323||254585||Ой, муж мой, муж, не бей меня очень,||
258076||262775||У меня тело белое, и болит мне очень.||
270129||275744||-Ну, хватит вам петь! -Бросайте работу!\~-Вареники на столе!||
285224||287148||-Ну, кума, помогай и ты!||
287760||292302||-Господи, какая там вьюга,\~если бы только наши, с пути не сбились.||
292302||294360||-Не бойся, им не впервой.||
294953||300934||-Не знаю, но мне так почему-то страшно,\~так чего-то грустно,||
301522||304636||будто бы, какое-то большое несчастье\~надо мной нависло.||
304636||308181||-Я, вижу, целый день, сама не своя ходишь.||
308181||314222||-И уже, сама себе думаю, чего бы тебе горевать?\~-Живешь, как у бога за дверью...||
314879||320506||-Мужа имеешь доброго, спокойного, трудолюбивого,\~который, чуть не молится на тебя.||
320506||322132||-И, что с того!||
Скриншоты
[Профиль] [ЛС]
Показать сообщения:    
Ответить на тему

Текущее время: 19-Июн 03:44

Часовой пояс: UTC + 3



Вы не можете начинать темы
Вы не можете отвечать на сообщения
Вы не можете редактировать свои сообщения
Вы не можете удалять свои сообщения
Вы не можете голосовать в опросах
Вы не можете прикреплять файлы к сообщениям
Вы не можете скачивать файлы