Сегодня идет свободное скачивание без начисления Download

Город Прора / Prora (Штефан Ритхаузер / Stephane Riethauser) [2012, Германия, мелодрама, короткий метр, гей-тема, DVDRip] Original (Ger) + Subs (Rus) + Бонус

Ответить на тему
 
Автор Сообщение

Bot ®

Стаж: 1 год 9 месяцев

Сообщений: 6

Создавать темы 13-Фев-2018 19:45

[Цитировать]

Город Прора / Prora
Страна: Швейцария, Германия
Жанр: Мелодрама, драма
Год выпуска: 2012
Продолжительность: 00:23
Перевод: Субтитры, SRT (Kirill Ivanov)
Режиссер: Штефан Ритхаузер / Stephane Riethauser
В ролях: Том Граменц / Tom Gramenz, Свен Гиппа / Swen Gippa.
Описание: Ян - Немец, Матьё - француз. Парни встречаются в баре некогда курортного городка Прора на берегу Балтийского моря.
Ранее утро после веселой ночи. Парням некуда спешить, они курят траву, гуляют по пляжу, обсуждают девочек и просто дурачатся...
Но никто из них не знает, чем закончится этот день...

Качество видео: DVDRip
Формат видео: AVI
Видео: XviD; 640х352; 25 fps; ~1600 kbps
Аудио: MPEG Audio Layer 3; 48,0 kHz; Stereo; 128 kbps | Original (Deutsch, Français)
MediaInfo
Общее
Полное имя : Prora (2013) K_I.avi
Формат : AVI
Формат/Информация : Audio Video Interleave
Профиль формата : OpenDML
Настройки формата : rec
Размер файла : 246 Мбайт
Продолжительность : 23 м.
Общий поток : 1493 Кбит/сек
Программа кодирования : AVI-Mux GUI 1.17.8, Aug 30 2008 12:36:58
Видео
Идентификатор : 0
Формат : MPEG-4 Visual
Профиль формата : Advanced Simple@L5
Параметр BVOP формата : 2
Параметр QPel формата : Нет
Параметр GMC формата : Без точки перехода
Параметр матрицы формата : Default (H.263)
Идентификатор кодека : XVID
Идентификатор кодека/Подсказка : XviD
Продолжительность : 23 м.
Битрейт : 1361 Кбит/сек
Ширина : 640 пикселей
Высота : 352 пикселя
Соотношение сторон : 16:9
Частота кадров : 25,000 кадров/сек
Цветовое пространство : YUV
Субдискретизация насыщенности : 4:2:0
Битовая глубина : 8 бит
Тип развёртки : Прогрессивная
Метод сжатия : С потерями
Бит/(Пиксели*Кадры) : 0.242
Размер потока : 224 Мбайт (91%)
Библиотека кодирования : XviD 1.2.1 (UTC 2008-12-04)
Аудио
Идентификатор : 1
Формат : MPEG Audio
Версия формата : Version 1
Профиль формата : Layer 3
Режим : Joint stereo
Расширение режима : MS Stereo
Идентификатор кодека : 55
Идентификатор кодека/Подсказка : MP3
Продолжительность : 23 м.
Вид битрейта : Постоянный
Битрейт : 128 Кбит/сек
Каналы : 2 канала
Частота : 48,0 КГц
Метод сжатия : С потерями
Размер потока : 21,1 Мбайт (9%)
Выравнивание : Соединение по промежуткам
Продолжительность промежутка : 584 мс. (14,60 видеокадров)
Время предзагрузки промежутка : 216 мс.
Заголовок : VTS_09
Библиотека кодирования : LAME3.98r
Настройки программы : -m j -V 4 -q 2 -lowpass 17 -b 128
Пример субтитров
1
00:00:45,084 --> 00:00:48,584
ГОРОД "ПРОРА"
2
00:01:27,800 --> 00:01:30,599
Девушка в баре, тебе "он" не понравилась.
3
00:01:34,540 --> 00:01:36,539
По-французски, мы говорим, "она"...
4
00:01:36,680 --> 00:01:38,279
"Девушка" - женского рода.
5
00:01:38,320 --> 00:01:39,519
Догоняешь?
6
00:01:39,580 --> 00:01:41,019
Точно, "девушка".
7
00:01:43,400 --> 00:01:44,559
Ёпа мать.
8
00:01:50,160 --> 00:01:51,199
Что такого?
9
00:01:52,240 --> 00:01:53,119
Ничего.
10
00:02:05,680 --> 00:02:06,919
Какие-то проблемы?
11
00:02:07,160 --> 00:02:08,399
Никаких проблем.
12
00:02:09,280 --> 00:02:11,759
У тебя этот странный взгляд
был всю ночь...
13
00:02:12,680 --> 00:02:14,199
Я еще пьян, вот и всё...
14
00:02:15,040 --> 00:02:17,199
Ты слабак по части выпивки!
15
00:02:30,760 --> 00:02:32,359
Черт подери, где ты это взял?
Скриншот с названием фильма
Скриншоты
О Прора
Об этом интересном месте, где снимался фильм можно почитать http://masterok.livejournal.com/648581.html
Сайт этого "мертвого городка" http://www.proradok.de/seiten_english/dokuzentrum.html
Сайт фильма http://clck.ru/8don3
Бонус
Фильм о фильме. О том как снималась эта короткометражка.
Качаем с Яндекс Диск: http://yadi.sk/d/Qa1G8hA74wBou (350МБ, 20 минут.)

Бонус не менее интересный, чем сам фильм ))))
Другие мои раздачи
[Профиль] [ЛС]
Показать сообщения:    
Ответить на тему

Текущее время: 19-Июн 03:45

Часовой пояс: UTC + 3



Вы не можете начинать темы
Вы не можете отвечать на сообщения
Вы не можете редактировать свои сообщения
Вы не можете удалять свои сообщения
Вы не можете голосовать в опросах
Вы не можете прикреплять файлы к сообщениям
Вы не можете скачивать файлы