Сегодня идет свободное скачивание без начисления Download

Прогулка по лесам / A Walk in the Woods (2015) BDRip [H.264/1080p]

Ответить на тему
 
Автор Сообщение

Bot ®

Стаж: 3 года

Сообщений: 9

Создавать темы 13-Фев-2018 19:45

[Цитировать]

Прогулка по лесам / A Walk in the Woods (2015) BDRip [H.264/1080p] - Производство: США / Route One Films, Wildwood Enterprises
Жанр: Драма, комедия, приключения, биография
Режиссер: Кен Куопис
Актеры: Роберт Редфорд, Ник Нолти, Эмма Томпсон, Мэри Стинберген, Ник Офферман, Кристен Шаал, Рэндолл Ньюсом, Хейли Ловитт, Линдс Эдвардс
Описание:
Экранизация романа американского журналиста и путешественника Билла Брайсона. Автор рассказывает о предпринятом им путешествии в компании своего старого друга, бывшего алкоголика, по знаменитой Аппалачской тропе, где путников на каждом шагу подстерегают опасности.

Дата мировой премьеры: 23 января 2015
Продолжительность: 01:44:37
Качество видео: BDRip
Перевод: Любительский двухголосый, закадровый (Parovoz Production)
Язык субтитров: Русский
Вид субтитров: Вшитые (отключаемые)
Реклама: Присутствуют голосовые и текстовые вставки рекламы.
Видео: MPEG-4 AVC/H.264, 1920x800, ~ 8960 kbps
Аудио #1: AC3, 2 ch, ~ 384 kbps - Русский
Аудио #2: DTS, 6 ch, ~ 1509 kbps - Английский
Семпл: Скачать
Mediainfo:
Код:
Общее
Уникальный идентификатор                 : 227681671603461673390567966194502818125 (0xAB49E5190370B6B9B9D3E6470DBD594D)
Полное имя                               : D:\films\Progulka.po.lesam.BDRip.1080p.mkv
Формат                                   : Matroska
Версия формата                           : Version 4 / Version 2
Размер файла                             : 7,90 Гбайт
Продолжительность                        : 1 ч. 44 м.
Общий поток                              : 10,8 Мбит/сек
Дата кодирования                         : UTC 2016-01-10 17:59:21
Программа кодирования                    : mkvmerge v8.7.0 ('All of the above') 64bit
Библиотека кодирования                   : libebml v1.3.3 + libmatroska v1.4.4
Видео
Идентификатор                            : 1
Формат                                   : AVC
Формат/Информация                        : Advanced Video Codec
Профиль формата                          : High@L4.1
Параметр CABAC формата                   : Да
Параметр ReFrames формата                : 5 кадров
Идентификатор кодека                     : V_MPEG4/ISO/AVC
Продолжительность                        : 1 ч. 44 м.
Битрейт                                  : 8960 Кбит/сек
Ширина                                   : 1920 пикселей
Высота                                   : 800 пикселей
Соотношение сторон                       : 2,40:1
Режим частоты кадров                     : Постоянный
Частота кадров                           : 23,976 кадра/сек
Цветовое пространство                    : YUV
Субдискретизация насыщенности            : 4:2:0
Битовая глубина                          : 8 бит
Тип развёртки                            : Прогрессивная
Бит/(Пиксели*Кадры)                      : 0.243
Размер потока                            : 6,52 Гбайт (82%)
Библиотека кодирования                   : x264 core 148 r2638 7599210
Настройки программы                      : cabac=1 / ref=5 / deblock=1:0:0 / analyse=0x3:0x133 / me=umh / subme=7 / psy=1 / psy_rd=1.00:0.00 / mixed_ref=1 / me_range=16 / chroma_me=1 / trellis=1 / 8x8dct=1 / cqm=0 / deadzone=21,11 / fast_pskip=0 / chroma_qp_offset=-2 / threads=18 / lookahead_threads=3 / sliced_threads=0 / nr=0 / decimate=1 / interlaced=0 / bluray_compat=0 / constrained_intra=0 / bframes=3 / b_pyramid=2 / b_adapt=1 / b_bias=0 / direct=1 / weightb=1 / open_gop=0 / weightp=2 / keyint=250 / keyint_min=23 / scenecut=40 / intra_refresh=0 / rc_lookahead=40 / rc=2pass / mbtree=1 / bitrate=8960 / ratetol=1.0 / qcomp=0.60 / qpmin=0 / qpmax=69 / qpstep=4 / cplxblur=20.0 / qblur=0.5 / ip_ratio=1.40 / aq=1:1.00
Язык                                     : English
Default                                  : Да
Forced                                   : Нет
Аудио #1
Идентификатор                            : 2
Формат                                   : AC-3
Формат/Информация                        : Audio Coding 3
Расширение режима                        : CM (complete main)
Параметр Endianness формата              : Big
Идентификатор кодека                     : A_AC3
Продолжительность                        : 1 ч. 44 м.
Вид битрейта                             : Постоянный
Битрейт                                  : 384 Кбит/сек
Каналы                                   : 2 канала
Расположение каналов                     : Front: L R
Частота                                  : 48,0 КГц
Частота кадров                           : 31,250 кадров/сек (1536 spf)
Метод сжатия                             : С потерями
Размер потока                            : 287 Мбайт (4%)
Язык                                     : Russian
Default                                  : Да
Forced                                   : Нет
Аудио #2
Идентификатор                            : 3
Формат                                   : DTS
Формат/Информация                        : Digital Theater Systems
Режим                                    : 16
Параметр Endianness формата              : Big
Идентификатор кодека                     : A_DTS
Продолжительность                        : 1 ч. 44 м.
Вид битрейта                             : Постоянный
Битрейт                                  : 1509 Кбит/сек
Каналы                                   : 6 каналов
Расположение каналов                     : Front: L C R, Side: L R, LFE
Частота                                  : 48,0 КГц
Частота кадров                           : 93,750 кадра/сек (512 spf)
Битовая глубина                          : 24 бит
Метод сжатия                             : С потерями
Размер потока                            : 1,10 Гбайт (14%)
Язык                                     : English
Default                                  : Нет
Forced                                   : Нет
Текст
Идентификатор                            : 4
Формат                                   : UTF-8
Идентификатор кодека                     : S_TEXT/UTF8
Идентификатор кодека/Информация          : UTF-8 Plain Text
Продолжительность                        : 1 ч. 16 м.
Битрейт                                  : 0 бит/сек
Count of elements                        : 2
Размер потока                            : 154 байт (0%)
Язык                                     : Russian
Default                                  : Да
Forced                                   : Да
Меню
00:00:00.000                             : en:00:00:00.000
00:07:59.771                             : en:00:07:59.771
00:15:42.650                             : en:00:15:42.650
00:21:58.651                             : en:00:21:58.651
00:25:31.864                             : en:00:25:31.864
00:31:25.759                             : en:00:31:25.759
00:40:02.984                             : en:00:40:02.984
00:43:59.512                             : en:00:43:59.512
00:46:59.692                             : en:00:46:59.692
00:53:16.777                             : en:00:53:16.777
00:58:17.661                             : en:00:58:17.661
01:06:52.550                             : en:01:06:52.550
01:12:25.341                             : en:01:12:25.341
01:17:39.530                             : en:01:17:39.530
01:21:07.529                             : en:01:21:07.529
01:31:33.780                             : en:01:31:33.780
01:35:32.560                             : en:01:35:32.560
01:37:32.680                             : en:01:37:32.680
Скриншоты:
Время раздачи: 24/7 (круглосуточно) до первых скачавших
[Профиль] [ЛС]
Показать сообщения:    
Ответить на тему

Текущее время: 20-Фев 02:53

Часовой пояс: UTC + 3



Вы не можете начинать темы
Вы не можете отвечать на сообщения
Вы не можете редактировать свои сообщения
Вы не можете удалять свои сообщения
Вы не можете голосовать в опросах
Вы не можете прикреплять файлы к сообщениям
Вы не можете скачивать файлы