Сегодня идет свободное скачивание без начисления Download

(UK Hardcore) VA - Hardcore Adrenaline - CD Collection - 2007, (Выпуски 1, 2, 3), FLAC (image+.cue), lossless

Ответить на тему
 
Автор Сообщение

Bot ®

Стаж: 4 года 1 месяц

Сообщений: 17

Создавать темы 13-Фев-2018 20:00

[Цитировать]

Hardcore Adrenaline - CD CollectionЖанр: UK Hardcore
Страна-производитель диска: Великобритания
Год издания: 2007
Издатель (лейбл): Gut TV
Аудиокодек: FLAC (*.flac)
Тип рипа: image+.cue
Битрейт аудио: lossless
Источник (релизер): Диски из личной коллекции
Наличие сканов в содержимом раздачи: да 600 dpi (*.jpg)
Hardcore Adrenaline - 2007, [3xCD], (Gut TV - [GTVCD09]) /3:53:49/

Треклист:
CD1: Stu Allan (1:17:59)
01. JAKAZiD – Cillit Bang (Visa Mix) (4:58)
02. DJ Kurt – Twilight Zone (4:15)
03. Ineffect & Gammer – We Come Alive (5:17)
04. DJ Robbo – Won't Forget These Days (4:19)
05. Joey Riot – Don't Make Me Wait (4:55)
06. Splash – Blame The Moon (Gammer Remix) (4:53)
07. United In Dance – Lift Me Above (Technikore Remix) (3:16)
08. Statik – Got A Feelin' (Darren Styles Remix) (3:41)
09. Stu Allan – Music's Got Me (Visa Hardcore Mix) (4:50)
10. Visa – All Of My Life (Visa Treatment Mix) (4:14)
11. Frantic & Gammer – Braveheart 2006 (4:57)
12. Eruption – I Feel Free (Stu Allan Hardcore Remix) (5:18)
13. DJ Sytronik And Spenno – One Day (3:55)
14. DJ Kurt – Secret Raver (4:25)
15. Dougal & Gammer – 3000 Stomps (Robbie Long & Stormtrooper Remix) (4:37)
16. Egg, The – Walking Away (Robbie Long & Stormtrooper Remix) (3:27)
17. Robbie Long & Stormtrooper – Dopest DJ (Dougal & Gammer Remix) (4:03)
18. Adam Harris – Hyperspeed (Sy & Unknown Remix) (2:30)
CD2: DJ Seduction (1:17:59)
01. Seduction & Joey Riot – Feel Free (4:34)
02. Seduction & Al Storm – Louder (4:32)
03. DJ's United – Everytime You Touch Me (4:33)
04. Diverse & Gammer – Along Make The Track Spin (4:13)
06. Rampant & Petruccio – Coming Up (3:41)
07. DJ Seduction – Dream Maker (4:55)
08. Sy & Unknown – Rock It Like This (VIP Mix) (4:20)
09. UFO – Blown Away (4:33)
10. DJ Seduction – 50,000 Watts (4:08)
11. Dougal & Gammer – When I Close My Eyes (5:07)
12. DJ Seduction – Open Up (5:04)
13. Dougal & Gammer – Velvet Skies (4:52)
14. DJ Seduction – Leaving The World Behind (4:14)
15. Tomo & Smetz – Fireball (4:38)
16. DJ's United – Kick The Flow (4:18)
17. DJ Sytronik & Gavin G – Come To Me (3:35)
18. MC Keyes – Want It Hardcore (2:59)
CD3: Bootlegs Mix (1:17:51)
01. JAKAZiD – Cillit Bang (Original Mix) (1:24)
02. Love Assassins – Teardrops (Impact Remix) (4:55)
03. Nukleuz Kollective – Listen To Your Heart (Sparky Remix) (4:01)
04. Stu Allan – A Feeling (Visa 2006 Hardcore Remix) (3:41)
05. Uniting Nations – Out Of Touch (UFO Remix) (4:02)
06. Hi_Tack – Say Say Say (Waiting 4 U) (Sparky Remix) (4:12)
07. Nukleuz Kollective – Everytime We Touch (3:30)
08. Filterfunk – S.O.S. (Message In A Bottle) (Sparky & Sytronik Remix) (4:15)
09. Visa – All I Need (DJ Kurt & Lee UHF Remix) (4:23)
10. Sparky & Sytronik – Dare Me (4:58)
11. Stu Allan – Superman (Sparky's Superman Returns Remix) (4:32)
12. Puretone – Addicted To Bass (Al Twisted & Rob Da Rhythm Remix) (5:30)
13. Visa – 007 (3:27)
14. Corenell – Keep On Jumpin' (DJ Kurt Remix) (5:06)
15. Cascada – Miracle (Joey Riot Remix) (4:44)
16. Starzoom – Billie Jean (People Always Tell Me) (Robbie Long & Stormtrooper Remix) (3:39)
17. Gammer – Liberation (Fly Like An Angel) (4:35)
18. Nukleuz Kollective – Heaven (Gammer Remix) (4:18)
19. Cappella – U Got 2 Know (Spenno, Dizzy & Sparky Remix) (2:28)
-
Лог создания рипа CD1
Exact Audio Copy V0.99 prebeta 4 from 23. January 2008
Отчёт EAC об извлечении, выполненном 15. марта 2013, 22:55
Various / Hardcore Adrenaline (CD1) - Stu Allan Mix
Дисковод: Optiarc DVD RW AD-7261S Adapter: 1 ID: 1
Режим чтения : Достоверность
Использование точного потока : Да
Отключение кэша аудио : Да
Использование указателей C2 : Нет
Коррекция смещения при чтении : 48
Способность читать области Lead-in и Lead-out : Нет
Заполнение пропущенных сэмплов тишиной : Да
Удаление блоков с тишиной в начале и конце : Нет
При вычислениях CRC использовались нулевые сэмплы : Да
Интерфейс : Встроенный Win32-интерфейс для Win NT/2000
Выходной формат : Внутренние WAV-операции
Формат сэмплов : 44.100 Гц; 16 бит; стерео
TOC извлечённого CD
Трек | Старт | Длительность | Начальный сектор | Конечный сектор
---------------------------------------------------------------------
1 | 0:00.00 | 4:58.49 | 0 | 22398
2 | 4:58.49 | 4:15.50 | 22399 | 41573
3 | 9:14.24 | 5:17.72 | 41574 | 65420
4 | 14:32.21 | 4:19.50 | 65421 | 84895
5 | 18:51.71 | 4:55.33 | 84896 | 107053
6 | 23:47.29 | 4:53.01 | 107054 | 129029
7 | 28:40.30 | 3:16.19 | 129030 | 143748
8 | 31:56.49 | 3:41.35 | 143749 | 160358
9 | 35:38.09 | 4:50.32 | 160359 | 182140
10 | 40:28.41 | 4:14.46 | 182141 | 201236
11 | 44:43.12 | 4:57.04 | 201237 | 223515
12 | 49:40.16 | 5:18.20 | 223516 | 247385
13 | 54:58.36 | 3:55.71 | 247386 | 265081
14 | 58:54.32 | 4:25.16 | 265082 | 284972
15 | 63:19.48 | 4:37.60 | 284973 | 305807
16 | 67:57.33 | 3:27.42 | 305808 | 321374
17 | 71:25.00 | 4:03.74 | 321375 | 339673
18 | 75:28.74 | 2:30.20 | 339674 | 350943
Характеристики диапазона извлечения и сообщения об ошибках
Выбранный диапазон
Имя файла C:\Users\Meijin\Desktop\Новая папка (4)\Various - Hardcore Adrenaline (CD1) - Stu Allan Mix.wav
Пиковый уровень 100.0 %
Качество диапазона 100.0 %
CRC теста 5546EF37
CRC копии 5546EF37
Копирование... OK
Ошибок не произошло
AccurateRip: сводка
Трек 1 точное извлечение (доверие 5) [C526C8EB]
Трек 2 точное извлечение (доверие 5) [414B28A6]
Трек 3 точное извлечение (доверие 5) [5BD298FA]
Трек 4 точное извлечение (доверие 5) [B80E1F7C]
Трек 5 точное извлечение (доверие 5) [2428D361]
Трек 6 точное извлечение (доверие 5) [D32836AD]
Трек 7 точное извлечение (доверие 5) [1E3CC94C]
Трек 8 точное извлечение (доверие 5) [A71D4568]
Трек 9 точное извлечение (доверие 5) [F4AA29FE]
Трек 10 точное извлечение (доверие 5) [51C3B8FF]
Трек 11 точное извлечение (доверие 5) [1EAAFB81]
Трек 12 точное извлечение (доверие 5) [A842CC36]
Трек 13 точное извлечение (доверие 5) [B837C7CF]
Трек 14 точное извлечение (доверие 5) [3E74729D]
Трек 15 точное извлечение (доверие 5) [3E3F9AA7]
Трек 16 точное извлечение (доверие 5) [688B06D3]
Трек 17 точное извлечение (доверие 5) [3A9D8331]
Трек 18 точное извлечение (доверие 5) [B079AD32]
Все треки извлечены точно
Конец отчёта
Лог создания рипа CD2
Exact Audio Copy V0.99 prebeta 4 from 23. January 2008
Отчёт EAC об извлечении, выполненном 15. марта 2013, 23:35
Various / Hardcore Adrenaline (CD2) - DJ Seduction Mix
Дисковод: Optiarc DVD RW AD-7261S Adapter: 1 ID: 1
Режим чтения : Достоверность
Использование точного потока : Да
Отключение кэша аудио : Да
Использование указателей C2 : Нет
Коррекция смещения при чтении : 48
Способность читать области Lead-in и Lead-out : Нет
Заполнение пропущенных сэмплов тишиной : Да
Удаление блоков с тишиной в начале и конце : Нет
При вычислениях CRC использовались нулевые сэмплы : Да
Интерфейс : Встроенный Win32-интерфейс для Win NT/2000
Выходной формат : Внутренние WAV-операции
Формат сэмплов : 44.100 Гц; 16 бит; стерео
TOC извлечённого CD
Трек | Старт | Длительность | Начальный сектор | Конечный сектор
---------------------------------------------------------------------
1 | 0:00.00 | 4:34.58 | 0 | 20607
2 | 4:34.58 | 4:32.15 | 20608 | 41022
3 | 9:06.73 | 4:33.01 | 41023 | 61498
4 | 13:39.74 | 3:35.51 | 61499 | 77674
5 | 17:15.50 | 4:13.33 | 77675 | 96682
6 | 21:29.08 | 3:41.05 | 96683 | 113262
7 | 25:10.13 | 4:55.18 | 113263 | 135405
8 | 30:05.31 | 4:20.18 | 135406 | 154923
9 | 34:25.49 | 4:33.49 | 154924 | 175447
10 | 38:59.23 | 4:08.08 | 175448 | 194055
11 | 43:07.31 | 5:07.26 | 194056 | 217106
12 | 48:14.57 | 5:04.60 | 217107 | 239966
13 | 53:19.42 | 4:52.04 | 239967 | 261870
14 | 58:11.46 | 4:14.41 | 261871 | 280961
15 | 62:26.12 | 4:38.55 | 280962 | 301866
16 | 67:04.67 | 4:18.43 | 301867 | 321259
17 | 71:23.35 | 3:35.37 | 321260 | 337421
18 | 74:58.72 | 2:59.46 | 337422 | 350892
Характеристики диапазона извлечения и сообщения об ошибках
Выбранный диапазон
Имя файла C:\Users\Meijin\Desktop\Новая папка (4)\Various - Hardcore Adrenaline (CD2) - DJ Seduction Mix.wav
Пиковый уровень 100.0 %
Качество диапазона 100.0 %
CRC теста EE85AA54
CRC копии EE85AA54
Копирование... OK
Ошибок не произошло
AccurateRip: сводка
Трек 1 точное извлечение (доверие 5) [0C9688CA]
Трек 2 точное извлечение (доверие 5) [E7590C48]
Трек 3 точное извлечение (доверие 5) [F51F5B19]
Трек 4 точное извлечение (доверие 5) [1C2D2384]
Трек 5 точное извлечение (доверие 5) [B1B48546]
Трек 6 точное извлечение (доверие 5) [4DA48BF9]
Трек 7 точное извлечение (доверие 5) [DF53896A]
Трек 8 точное извлечение (доверие 5) [F2BE4C89]
Трек 9 точное извлечение (доверие 5) [E21B3B8C]
Трек 10 точное извлечение (доверие 5) [932878D6]
Трек 11 точное извлечение (доверие 5) [F1B54F72]
Трек 12 точное извлечение (доверие 5) [6802B815]
Трек 13 точное извлечение (доверие 5) [A7EB6821]
Трек 14 точное извлечение (доверие 5) [594D76A4]
Трек 15 точное извлечение (доверие 5) [9CCEE43D]
Трек 16 точное извлечение (доверие 5) [3EA49440]
Трек 17 точное извлечение (доверие 5) [5D468D3D]
Трек 18 точное извлечение (доверие 5) [C50E2473]
Все треки извлечены точно
Конец отчёта
Лог создания рипа CD3
Exact Audio Copy V0.99 prebeta 4 from 23. January 2008
Отчёт EAC об извлечении, выполненном 16. марта 2013, 9:06
Various / Hardcore Adrenaline (CD3) - Bootlegs Mix
Дисковод: Optiarc DVD RW AD-7261S Adapter: 1 ID: 1
Режим чтения : Достоверность
Использование точного потока : Да
Отключение кэша аудио : Да
Использование указателей C2 : Нет
Коррекция смещения при чтении : 48
Способность читать области Lead-in и Lead-out : Нет
Заполнение пропущенных сэмплов тишиной : Да
Удаление блоков с тишиной в начале и конце : Нет
При вычислениях CRC использовались нулевые сэмплы : Да
Интерфейс : Встроенный Win32-интерфейс для Win NT/2000
Выходной формат : Внутренние WAV-операции
Формат сэмплов : 44.100 Гц; 16 бит; стерео
TOC извлечённого CD
Трек | Старт | Длительность | Начальный сектор | Конечный сектор
---------------------------------------------------------------------
1 | 0:00.00 | 1:24.34 | 0 | 6333
2 | 1:24.34 | 4:55.71 | 6334 | 28529
3 | 6:20.30 | 4:01.10 | 28530 | 46614
4 | 10:21.40 | 3:41.70 | 46615 | 63259
5 | 14:03.35 | 4:02.40 | 63260 | 81449
6 | 18:06.00 | 4:12.05 | 81450 | 100354
7 | 22:18.05 | 3:30.74 | 100355 | 116178
8 | 25:49.04 | 4:15.39 | 116179 | 135342
9 | 30:04.43 | 4:23.62 | 135343 | 155129
10 | 34:28.30 | 4:58.62 | 155130 | 177541
11 | 39:27.17 | 4:32.68 | 177542 | 198009
12 | 44:00.10 | 5:30.51 | 198010 | 222810
13 | 49:30.61 | 3:27.04 | 222811 | 238339
14 | 52:57.65 | 5:06.68 | 238340 | 261357
15 | 58:04.58 | 4:44.73 | 261358 | 282730
16 | 62:49.56 | 3:39.16 | 282731 | 299171
17 | 66:28.72 | 4:35.50 | 299172 | 319846
18 | 71:04.47 | 4:18.49 | 319847 | 339245
19 | 75:23.21 | 2:28.06 | 339246 | 350351
Характеристики диапазона извлечения и сообщения об ошибках
Выбранный диапазон
Имя файла C:\Users\Meijin\Desktop\Новая папка (4)\Various - Hardcore Adrenaline (CD3) - Bootlegs Mix.wav
Пиковый уровень 100.0 %
Качество диапазона 100.0 %
CRC теста AFF7B266
CRC копии AFF7B266
Копирование... OK
Ошибок не произошло
AccurateRip: сводка
Трек 1 точное извлечение (доверие 5) [4B5DB464]
Трек 2 точное извлечение (доверие 5) [9115C62E]
Трек 3 точное извлечение (доверие 5) [A2698342]
Трек 4 точное извлечение (доверие 5) [5DB5D932]
Трек 5 точное извлечение (доверие 5) [0A771162]
Трек 6 точное извлечение (доверие 5) [37309884]
Трек 7 точное извлечение (доверие 5) [5D4C4832]
Трек 8 точное извлечение (доверие 5) [0EF67A2F]
Трек 9 точное извлечение (доверие 5) [6484EF02]
Трек 10 точное извлечение (доверие 5) [008EC301]
Трек 11 точное извлечение (доверие 5) [58BDAD67]
Трек 12 точное извлечение (доверие 5) [E7E0E22D]
Трек 13 точное извлечение (доверие 5) [0A03F17E]
Трек 14 точное извлечение (доверие 5) [F8C71919]
Трек 15 точное извлечение (доверие 5) [EF0D1549]
Трек 16 точное извлечение (доверие 5) [E2C6B11C]
Трек 17 точное извлечение (доверие 5) [158CE5F3]
Трек 18 точное извлечение (доверие 5) [FE1DFF0D]
Трек 19 точное извлечение (доверие 5) [85CF9E54]
Все треки извлечены точно
Конец отчёта
Hardcore Adrenaline 2 - 2007, [3xCD], (Gut TV - [GTVCD14]) /3:48:09/

Треклист:
CD1: Stu Allan (77:15)
01. Darren Styles & Mark Breeze Present Futureworld – Chemical Love (Jamie Ritmen Remix) (4:28)
02. Angel Eyez – Twilight (Stu Allan Remix) (5:36)
03. Visa vs Barley – On The Sun (5:12)
04. Stu Allan – Far Away (Joey Riot Hardcore Remix) (3:58)
05. Audioscape & Kelly C. – One Heart One Mind (Joey Riot Mix) (3:55)
06. Stu Allan Feat. Vicky Fee – Without You (4:39)
07. Sytronik & Gavin G Feat. Alison Wade – Under A Blue Sky (2:51)
08. Fracus Feat. Angel Eyez – Into My Life (4:04)
09. Weaver & Andy L Feat. Fran – Cannonball (4:50)
10. Nukleuz Kollective – Stay (Stu Allan Remix) (3:58)
11. Stu Allan – Come Back To Me (3:48)
12. Stu Allan vs Barley – Sensation (4:43)
13. JAKAZiD – Set Me Free (Liberate) (3:50)
14. Lisa Pin-Up, Elvira & Modelle – Another Jam (4:41)
15. Barley – Working The Bass (3:40)
16. 2 Damn Tuff – Blow The Roof (Robbie Long & Stormtrooper Remix) (4:46)
17. Robbie Long & A.M.S. Feat. MC Ethos – Wakey Wakey (Orbit1 Remix) (4:29)
18. Robbie Long & A.M.S. – Trigger Hardcore (DJ Stormtrooper Remix - Stu Allan VIP) (3:47
CD2: DJ Seduction (75:50)
01. Dougal & Gammer – Dancing DJ (3:53)
02. Seduction & Joey Riot – Bring The Beat Back (4:10)
03. Juicy Sluts – Don't Stop (4:28)
04. DJ Seduction Feat. Alison Wade – Just For You (4:07)
05. Alistair Storm Feat. Amy – Surrender (5:06)
06. DJ Seduction Feat. Malaya – In Dreams (4:47)
07. Seduction & Joey Riot – Brainwashed (4:23)
08. Gammer – Ready To Go (3:13)
09. Supreme, Sunset Regime & Joey Riot – Bassline Thunder (4:27)
10. DJ Seduction – The Ultimate (4:00)
11. Seduction & Al Storm – Ready To Rock (5:01)
12. DJs United – Check Out The Sound (2:54)
13. DJ Seduction – Rock Ya Body (Hardcore Adrenaline Mix) (4:28)
14. DJ Kurt vs. Fonzerelli – Moonlight Party (4:38)
15. Sy & Seduction – The Devil (Al Storm Remix) (4:51)
16. DJ Stylus Feat. Olivia – Shake Ya Body (3:35)
17. Corenell vs. Lisa Marie Experience, The – Keep On Jumpin' (DJ Seduction Remix) (2:52)
18. DJ Seduction – We Are Hardcore (4:57)
CD3: Bootlegs Mix (74:39)
01. Stormtrooper vs. D-Lyte Feat. Nemesis – Gypsy Disco (2:19)
02. Injured Rezz Feat. Kristy – Ride Like The Wind (3:06)
03. JAKAZiD – Can't Hold Back (3:05)
04. DJ Foe – You Got The Love (Original Mix) (3:21)
05. Hoxtons, The – Gonna Make You A Star (Fracus Remix) (4:00)
06. CRW – I Feel Love (Breeze & Styles Remix) (3:51)
07. Petruccio & Sytronik – Bullet In The Gun (4:43)
08. Nukleuz Kollective – Let Me Be Your Fantasy (Impact Remix) (3:16)
09. Nukleuz Kollective – Boys Of Summer (3:49)
10. Andy Whitby & Matt Lee – Everybody's Free (Stu Allan Hardcore Remix) (4:43)
11. Stu Allan & Pete Pritchard – Adagio For Strings (Stu Allan Remix) (4:00)
12. King Ace – Better Off Alone (Visa Remix) (4:00)
13. King Ace – Castles In The Sky (3:54)
14. DJ Destiny – What's Up (Dougal & Gammer Hardcore Remix) (4:11)
15. Sound De-Zign – Happiness (Audioscape Remix) (3:49)
16. Alibi vs. Rockefeller – Sexual Healing (Sparky & Sytronik Remix) (4:00)
17. Uniting Nations – Do It Yourself (Darwin Remix) (4:11)
18. Delano & Crockett – Missing (DJ Kurt Remix) (5:21)
19. Nukleuz Kollective – Sandstorm (Audioscape Remix) (5:00)
-
Лог создания рипа CD1
Exact Audio Copy V0.99 prebeta 4 from 23. January 2008
Отчёт EAC об извлечении, выполненном 28. февраля 2013, 0:03
Various / Hardcore Adrenaline 2 (CD1)
Дисковод: Optiarc DVD RW AD-7261S Adapter: 1 ID: 1
Режим чтения : Достоверность
Использование точного потока : Да
Отключение кэша аудио : Да
Использование указателей C2 : Нет
Коррекция смещения при чтении : 48
Способность читать области Lead-in и Lead-out : Нет
Заполнение пропущенных сэмплов тишиной : Да
Удаление блоков с тишиной в начале и конце : Нет
При вычислениях CRC использовались нулевые сэмплы : Да
Интерфейс : Встроенный Win32-интерфейс для Win NT/2000
Выходной формат : Внутренние WAV-операции
Формат сэмплов : 44.100 Гц; 16 бит; стерео
TOC извлечённого CD
Трек | Старт | Длительность | Начальный сектор | Конечный сектор
---------------------------------------------------------------------
1 | 0:00.00 | 4:28.38 | 0 | 20137
2 | 4:28.38 | 5:36.36 | 20138 | 45373
3 | 10:04.74 | 5:12.01 | 45374 | 68774
4 | 15:17.00 | 3:58.27 | 68775 | 86651
5 | 19:15.27 | 3:55.35 | 86652 | 104311
6 | 23:10.62 | 4:39.45 | 104312 | 125281
7 | 27:50.32 | 2:51.20 | 125282 | 138126
8 | 30:41.52 | 4:04.60 | 138127 | 156486
9 | 34:46.37 | 4:50.29 | 156487 | 178265
10 | 39:36.66 | 3:58.28 | 178266 | 196143
11 | 43:35.19 | 3:48.73 | 196144 | 213316
12 | 47:24.17 | 4:43.69 | 213317 | 234610
13 | 52:08.11 | 3:50.36 | 234611 | 251896
14 | 55:58.47 | 4:41.35 | 251897 | 273006
15 | 60:40.07 | 3:40.43 | 273007 | 289549
16 | 64:20.50 | 4:46.06 | 289550 | 311005
17 | 69:06.56 | 4:29.32 | 311006 | 331212
18 | 73:36.13 | 3:47.17 | 331213 | 348254
Характеристики диапазона извлечения и сообщения об ошибках
Выбранный диапазон
Имя файла C:\Users\Meijin\Desktop\Новая папка (4)\Various - Hardcore Adrenaline 2 (CD1).wav
Пиковый уровень 100.0 %
Качество диапазона 100.0 %
CRC теста 3B2AB5AB
CRC копии 3B2AB5AB
Копирование... OK
Ошибок не произошло
AccurateRip: сводка
Трек 1 точное извлечение (доверие 4) [A7B8741A]
Трек 2 точное извлечение (доверие 4) [31B95306]
Трек 3 точное извлечение (доверие 4) [BA666C92]
Трек 4 точное извлечение (доверие 4) [FB29A469]
Трек 5 точное извлечение (доверие 4) [B5F683D6]
Трек 6 точное извлечение (доверие 4) [FB437BC2]
Трек 7 точное извлечение (доверие 4) [1D1EF887]
Трек 8 точное извлечение (доверие 4) [AF5CF3F5]
Трек 9 точное извлечение (доверие 4) [98390A96]
Трек 10 точное извлечение (доверие 4) [B399F3EB]
Трек 11 точное извлечение (доверие 4) [80A6D619]
Трек 12 точное извлечение (доверие 4) [73CE49C5]
Трек 13 точное извлечение (доверие 4) [74411F7B]
Трек 14 точное извлечение (доверие 4) [40623FC3]
Трек 15 точное извлечение (доверие 4) [36AD277E]
Трек 16 точное извлечение (доверие 4) [7CDA708D]
Трек 17 точное извлечение (доверие 4) [311FBCDD]
Трек 18 точное извлечение (доверие 4) [4E5D43EC]
Все треки извлечены точно
Конец отчёта
Лог создания рипа CD2
Exact Audio Copy V0.99 prebeta 4 from 23. January 2008
Отчёт EAC об извлечении, выполненном 27. февраля 2013, 23:26
Various / Hardcore Adrenaline 2 (CD2)
Дисковод: Optiarc DVD RW AD-7261S Adapter: 1 ID: 1
Режим чтения : Достоверность
Использование точного потока : Да
Отключение кэша аудио : Да
Использование указателей C2 : Нет
Коррекция смещения при чтении : 48
Способность читать области Lead-in и Lead-out : Нет
Заполнение пропущенных сэмплов тишиной : Да
Удаление блоков с тишиной в начале и конце : Нет
При вычислениях CRC использовались нулевые сэмплы : Да
Интерфейс : Встроенный Win32-интерфейс для Win NT/2000
Выходной формат : Внутренние WAV-операции
Формат сэмплов : 44.100 Гц; 16 бит; стерео
TOC извлечённого CD
Трек | Старт | Длительность | Начальный сектор | Конечный сектор
---------------------------------------------------------------------
1 | 0:00.00 | 3:53.18 | 0 | 17492
2 | 3:53.18 | 4:10.02 | 17493 | 36244
3 | 8:03.20 | 4:28.63 | 36245 | 56407
4 | 12:32.08 | 4:07.26 | 56408 | 74958
5 | 16:39.34 | 5:06.36 | 74959 | 97944
6 | 21:45.70 | 4:47.49 | 97945 | 119518
7 | 26:33.44 | 4:23.36 | 119519 | 139279
8 | 30:57.05 | 3:13.47 | 139280 | 153801
9 | 34:10.52 | 4:27.40 | 153802 | 173866
10 | 38:38.17 | 4:00.47 | 173867 | 191913
11 | 42:38.64 | 5:01.07 | 191914 | 214495
12 | 47:39.71 | 2:54.57 | 214496 | 227602
13 | 50:34.53 | 4:28.63 | 227603 | 247765
14 | 55:03.41 | 4:38.22 | 247766 | 268637
15 | 59:41.63 | 4:51.52 | 268638 | 290514
16 | 64:33.40 | 3:35.05 | 290515 | 306644
17 | 68:08.45 | 2:52.08 | 306645 | 319552
18 | 71:00.53 | 4:57.05 | 319553 | 341832
Характеристики диапазона извлечения и сообщения об ошибках
Выбранный диапазон
Имя файла C:\Users\Meijin\Desktop\Новая папка (4)\Various - Hardcore Adrenaline 2 (CD2).wav
Пиковый уровень 100.0 %
Качество диапазона 100.0 %
CRC теста 9EDAE731
CRC копии 9EDAE731
Копирование... OK
Ошибок не произошло
AccurateRip: сводка
Трек 1 точное извлечение (доверие 4) [2687FD63]
Трек 2 точное извлечение (доверие 4) [501798F5]
Трек 3 точное извлечение (доверие 4) [92712D59]
Трек 4 точное извлечение (доверие 4) [D22708C0]
Трек 5 точное извлечение (доверие 4) [72D4604F]
Трек 6 точное извлечение (доверие 4) [A5146457]
Трек 7 точное извлечение (доверие 4) [C52D346A]
Трек 8 точное извлечение (доверие 4) [4B749E38]
Трек 9 точное извлечение (доверие 4) [DAF705B2]
Трек 10 точное извлечение (доверие 4) [2A0B0950]
Трек 11 точное извлечение (доверие 4) [EFBB83B5]
Трек 12 точное извлечение (доверие 4) [4BE761AD]
Трек 13 точное извлечение (доверие 4) [E64ED581]
Трек 14 точное извлечение (доверие 4) [C7560337]
Трек 15 точное извлечение (доверие 4) [0882142E]
Трек 16 точное извлечение (доверие 4) [7CB492DC]
Трек 17 точное извлечение (доверие 4) [BE6B46B8]
Трек 18 точное извлечение (доверие 4) [1516FC6C]
Все треки извлечены точно
Конец отчёта
Лог создания рипа CD3
Exact Audio Copy V0.99 prebeta 4 from 23. January 2008
Отчёт EAC об извлечении, выполненном 27. февраля 2013, 22:45
Various / Hardcore Adrenaline 2 (CD3)
Дисковод: Optiarc DVD RW AD-7261S Adapter: 1 ID: 1
Режим чтения : Достоверность
Использование точного потока : Да
Отключение кэша аудио : Да
Использование указателей C2 : Нет
Коррекция смещения при чтении : 48
Способность читать области Lead-in и Lead-out : Нет
Заполнение пропущенных сэмплов тишиной : Да
Удаление блоков с тишиной в начале и конце : Нет
При вычислениях CRC использовались нулевые сэмплы : Да
Интерфейс : Встроенный Win32-интерфейс для Win NT/2000
Выходной формат : Внутренние WAV-операции
Формат сэмплов : 44.100 Гц; 16 бит; стерео
TOC извлечённого CD
Трек | Старт | Длительность | Начальный сектор | Конечный сектор
---------------------------------------------------------------------
1 | 0:00.00 | 2:19.74 | 0 | 10498
2 | 2:19.74 | 3:06.20 | 10499 | 24468
3 | 5:26.19 | 3:05.45 | 24469 | 38388
4 | 8:31.64 | 3:21.71 | 38389 | 53534
5 | 11:53.60 | 4:00.10 | 53535 | 71544
6 | 15:53.70 | 3:51.72 | 71545 | 88941
7 | 19:45.67 | 4:43.64 | 88942 | 110230
8 | 24:29.56 | 3:16.32 | 110231 | 124962
9 | 27:46.13 | 3:49.14 | 124963 | 142151
10 | 31:35.27 | 4:43.58 | 142152 | 163434
11 | 36:19.10 | 4:00.09 | 163435 | 181443
12 | 40:19.19 | 4:00.09 | 181444 | 199452
13 | 44:19.28 | 3:54.50 | 199453 | 217052
14 | 48:14.03 | 4:11.04 | 217053 | 235881
15 | 52:25.07 | 3:49.18 | 235882 | 253074
16 | 56:14.25 | 4:00.09 | 253075 | 271083
17 | 60:14.34 | 4:11.02 | 271084 | 289910
18 | 64:25.36 | 5:21.73 | 289911 | 314058
19 | 69:47.34 | 5:00.05 | 314059 | 336563
Характеристики диапазона извлечения и сообщения об ошибках
Выбранный диапазон
Имя файла C:\Users\Meijin\Desktop\Новая папка (4)\Various - Hardcore Adrenaline 2 (CD3).wav
Пиковый уровень 99.4 %
Качество диапазона 99.9 %
CRC теста CD41C681
CRC копии CD41C681
Копирование... OK
Ошибок не произошло
AccurateRip: сводка
Трек 1 точное извлечение (доверие 4) [C9116412]
Трек 2 точное извлечение (доверие 4) [121D2E81]
Трек 3 точное извлечение (доверие 4) [24F2A744]
Трек 4 точное извлечение (доверие 4) [0C34895D]
Трек 5 точное извлечение (доверие 4) [32DFBC8D]
Трек 6 точное извлечение (доверие 4) [D0B5FE67]
Трек 7 точное извлечение (доверие 4) [E08CDF8D]
Трек 8 точное извлечение (доверие 4) [F75A9793]
Трек 9 точное извлечение (доверие 4) [733FB9DF]
Трек 10 точное извлечение (доверие 4) [1A552BD6]
Трек 11 точное извлечение (доверие 4) [C9F21C4D]
Трек 12 точное извлечение (доверие 4) [D75CA825]
Трек 13 точное извлечение (доверие 4) [4DA23A33]
Трек 14 точное извлечение (доверие 4) [14193B73]
Трек 15 точное извлечение (доверие 4) [5AD31572]
Трек 16 точное извлечение (доверие 4) [A26C7BD4]
Трек 17 точное извлечение (доверие 4) [4B6F2C27]
Трек 18 точное извлечение (доверие 4) [50FC013A]
Трек 19 точное извлечение (доверие 4) [6A47CA60]
Все треки извлечены точно
Конец отчёта
Hardcore Adrenaline 3 - 2007, [3xCD], (Gut TV - [GTVCD20]) /3:35:14/

Треклист:
CD1: Stu Allan mix (1:17:38)
01. Visa – With Every Heartbeat (Audioscape Remix) (5:06)
02. Al Storm – Never Ever (Weekend) (3:27)
03. Darwin & Alison Wade – Tonight (3:42)
04. Visa – Holding On 4 U (Fracus Remix) (5:12)
05. Stabilized Feat. Kristy – Don't Go (4:11)
06. Stu Allan Vs Barley – Fly Away With Me (3:43)
07. Ibiza Knights – (Feels So) Good To Be Alive (Jamie Ritmen Remix) (4:55)
08. Rachel Loy – I Can Feel It (Lovin' Me) (JAKAZiD Remix) (4:33)
09. Stu Allan Vs Barley – Sensation (Barley VIP Remix) (4:04)
10. Visa – Don't Go Away (Al Storm Remix) (4:02)
11. DJ Mikk – I Will Love Again (3:06)
12. Stu Allan & Al Storm Feat. Vicky Fee – Paint Me In Sadness (4:11)
13. InEffect & Miss Special K Feat. Andy L – Outerlimits (4:44)
14. Darwin & Andy L – Until The Rain (4:41)
15. DJ Stormtrooper Vs DJ D-Lyte Feat. MC Knight – Red Alert (4:44)
16. Druid & Stormtrooper – Panic 2007 (3:00)
17. Al Twisted & DJ JFX Ft Vicky Fee –Turn It Up (5:30)
18. JAKAZiD – Can't Hold Back (DJ Shimamura Remix) (4:38)
CD2: DJ Seduction mix (1:16:56)
01. Sy & Unknown – What A Great Drug (4:45)
02. DJ D-Lyte & Orbit1 – U Know U Want It (4:15)
03. DJ Seduction – 50,000 Watts (Kurt Remix) (3:23)
04. Clubraiders – Move Your Hands Up (DJ Seduction Remix) (5:28)
05. DJ Seduction – Get Down (3:33)
06. Kurt Feat. MC Mental – Motivate (5:01)
07. Seduction & Al Storm – Floor Burn (3:34)
08. C.Kay – 5am (4:44)
09. Joey Riot – Your Smile (5:53)
10. Darren Styles & Seduction Feat. Alison Wade – Sunlight (Chaos Remix) (5:10)
11. Al Storm – Darkest Shadow (3:44)
12. DJ Silver & Acolyte, The – Thug Connected (Orbit1 Remix) (3:55)
13. Dougal & Gammer – The Takedown (3:12)
14. DJ Seduction – Rock The Jam (3:44)
15. Sedders – At Night (Energize) (4:06)
16. Seduction & Al Storm – Party People (3:58)
17. DJ Seduction – High Above (4:17)
18. Joey Riot Feat. MC Enemy – Deep Inside (4:05)
CD3: Bootlegs Mix (1:15:10)
01. Robbie Long & Stormtrooper Ft Kristy – I Need Your Lovin (Like The Sunshine) (3:51)
02. Da Ripperz – Cheater (Stormtrooper Remix) (4:12)
03. Sound Selektaz – Umbrella (Hardcore Mix) (2:35)
04. DJ Foe – Boogie 2Nite (4:16)
05. Uniting Nations – Do It Yourself (Weaver Remix) (4:13)
06. Nukleuz Kollective – Run To You (3:31)
07. JoBabe – Ready Or Not (DJ Shimamura Remix) (4:13)
08. Hot Fuzz – Every Breath You Take (3:13)
09. Nukleuz Kollective – Set You Free (3:29)
10. King Ace – Don't Leave Me Alone (3:35)
11. Niels Van Gogh – Try To Believe (JAKAZiD Remix) (4:03)
12. Himbo & Robbie S – Tainted Love (Hardcell Mix) (3:10)
13. Uraken & Calyn Tsukishima – Sweet Dreams (3:51)
14. HNK – The Simpsons (The Decibel Junkiez Remix) (4:00)
15. Chocolate Party – WIKID (DJ Kurt Remix) (3:46)
16. HNK – Last Nite A DJ Saved My Life (Joey Riot Remix) (3:29)
17. King Ace – 9pm (Till I Come) (3:40)
18. JAKAZiD – Find Me (Odyssey To Anyoona) (4:36)
19. Filthy Louca – Silence (Darwin Remix) (3:35)
20. Egg, The – Walking Away (Audioscape Remix) (3:41)
-
Лог создания рипа CD1
Exact Audio Copy V0.99 prebeta 4 from 23. January 2008
Отчёт EAC об извлечении, выполненном 16. мая 2013, 21:42
Various / Hardcore Adrenaline 3 (CD1) - Stu Allan Mix
Дисковод: Optiarc DVD RW AD-7261S Adapter: 1 ID: 1
Режим чтения : Достоверность
Использование точного потока : Да
Отключение кэша аудио : Да
Использование указателей C2 : Нет
Коррекция смещения при чтении : 48
Способность читать области Lead-in и Lead-out : Нет
Заполнение пропущенных сэмплов тишиной : Да
Удаление блоков с тишиной в начале и конце : Нет
При вычислениях CRC использовались нулевые сэмплы : Да
Интерфейс : Встроенный Win32-интерфейс для Win NT/2000
Выходной формат : Внутренние WAV-операции
Формат сэмплов : 44.100 Гц; 16 бит; стерео
TOC извлечённого CD
Трек | Старт | Длительность | Начальный сектор | Конечный сектор
---------------------------------------------------------------------
1 | 0:00.00 | 5:06.23 | 0 | 22972
2 | 5:06.23 | 3:27.63 | 22973 | 38560
3 | 8:34.11 | 3:42.69 | 38561 | 55279
4 | 12:17.05 | 5:12.04 | 55280 | 78683
5 | 17:29.09 | 4:11.63 | 78684 | 97571
6 | 21:40.72 | 3:43.06 | 97572 | 114302
7 | 25:24.03 | 4:55.38 | 114303 | 136465
8 | 30:19.41 | 4:33.36 | 136466 | 156976
9 | 34:53.02 | 4:04.62 | 156977 | 175338
10 | 38:57.64 | 4:02.04 | 175339 | 193492
11 | 42:59.68 | 3:06.02 | 193493 | 207444
12 | 46:05.70 | 4:11.48 | 207445 | 226317
13 | 50:17.43 | 4:44.33 | 226318 | 247650
14 | 55:02.01 | 4:41.50 | 247651 | 268775
15 | 59:43.51 | 4:44.35 | 268776 | 290110
16 | 64:28.11 | 3:00.30 | 290111 | 303640
17 | 67:28.41 | 5:30.73 | 303641 | 328463
18 | 72:59.39 | 4:38.66 | 328464 | 349379
Характеристики диапазона извлечения и сообщения об ошибках
Выбранный диапазон
Имя файла C:\Users\Meijin\Desktop\Новая папка (4)\Various - Hardcore Adrenaline 3 (CD1) - Stu Allan Mix.wav
Пиковый уровень 100.0 %
Качество диапазона 100.0 %
CRC теста 31C309EF
CRC копии 31C309EF
Копирование... OK
Ошибок не произошло
AccurateRip: сводка
Трек 1 точное извлечение (доверие 3) [7D3801CE]
Трек 2 точное извлечение (доверие 3) [4B74CEE9]
Трек 3 точное извлечение (доверие 3) [4F4A5C84]
Трек 4 точное извлечение (доверие 3) [5E1932F0]
Трек 5 точное извлечение (доверие 3) [E59CC9C6]
Трек 6 точное извлечение (доверие 2) [0E3781D7]
Трек 7 точное извлечение (доверие 3) [D9CB4486]
Трек 8 точное извлечение (доверие 3) [0E3FDB98]
Трек 9 точное извлечение (доверие 3) [9211F531]
Трек 10 точное извлечение (доверие 3) [6CC1D47D]
Трек 11 точное извлечение (доверие 3) [88A9B8EA]
Трек 12 точное извлечение (доверие 3) [EEF00530]
Трек 13 точное извлечение (доверие 3) [7B3F030B]
Трек 14 точное извлечение (доверие 3) [70B84ED9]
Трек 15 точное извлечение (доверие 3) [66F7984F]
Трек 16 точное извлечение (доверие 3) [EEB20CDE]
Трек 17 точное извлечение (доверие 3) [D1F69C3C]
Трек 18 точность не определена (достоверность 2) [FFF6C6A1], AccurateRip вернул [A0ADB441]
17 трек(и) скопированы точно
1 трек(и) не удалось проверить на точность
Некоторые треки не прошли проверку на точность
Конец отчёта
Лог создания рипа CD2
Exact Audio Copy V0.99 prebeta 4 from 23. January 2008
Отчёт EAC об извлечении, выполненном 16. мая 2013, 22:25
Various / Hardcore Adrenaline 3 (CD2) - DJ Seduction Mix
Дисковод: Optiarc DVD RW AD-7261S Adapter: 1 ID: 1
Режим чтения : Достоверность
Использование точного потока : Да
Отключение кэша аудио : Да
Использование указателей C2 : Нет
Коррекция смещения при чтении : 48
Способность читать области Lead-in и Lead-out : Нет
Заполнение пропущенных сэмплов тишиной : Да
Удаление блоков с тишиной в начале и конце : Нет
При вычислениях CRC использовались нулевые сэмплы : Да
Интерфейс : Встроенный Win32-интерфейс для Win NT/2000
Выходной формат : Внутренние WAV-операции
Формат сэмплов : 44.100 Гц; 16 бит; стерео
TOC извлечённого CD
Трек | Старт | Длительность | Начальный сектор | Конечный сектор
---------------------------------------------------------------------
1 | 0:00.00 | 4:45.51 | 0 | 21425
2 | 4:45.51 | 4:15.26 | 21426 | 40576
3 | 9:01.02 | 3:23.55 | 40577 | 55856
4 | 12:24.57 | 5:28.29 | 55857 | 80485
5 | 17:53.11 | 3:33.08 | 80486 | 96468
6 | 21:26.19 | 5:01.45 | 96469 | 119088
7 | 26:27.64 | 3:34.34 | 119089 | 135172
8 | 30:02.23 | 4:44.09 | 135173 | 156481
9 | 34:46.32 | 5:53.41 | 156482 | 182997
10 | 40:39.73 | 5:10.48 | 182998 | 206295
11 | 45:50.46 | 3:44.47 | 206296 | 223142
12 | 49:35.18 | 3:55.51 | 223143 | 240818
13 | 53:30.69 | 3:12.65 | 240819 | 255283
14 | 56:43.59 | 3:44.71 | 255284 | 272154
15 | 60:28.55 | 4:06.29 | 272155 | 290633
16 | 64:35.09 | 3:58.64 | 290634 | 308547
17 | 68:33.73 | 4:17.07 | 308548 | 327829
18 | 72:51.05 | 4:05.15 | 327830 | 346219
Характеристики диапазона извлечения и сообщения об ошибках
Выбранный диапазон
Имя файла C:\Users\Meijin\Desktop\Новая папка (4)\Various - Hardcore Adrenaline 3 (CD2) - DJ Seduction Mix.wav
Пиковый уровень 100.0 %
Качество диапазона 100.0 %
CRC теста 29B3184B
CRC копии 29B3184B
Копирование... OK
Ошибок не произошло
AccurateRip: сводка
Трек 1 точное извлечение (доверие 2) [30D63885]
Трек 2 точное извлечение (доверие 2) [24B8DDF0]
Трек 3 точное извлечение (доверие 2) [208FD593]
Трек 4 точное извлечение (доверие 2) [81746B90]
Трек 5 точное извлечение (доверие 2) [74BABA14]
Трек 6 точное извлечение (доверие 2) [7EA6512A]
Трек 7 точное извлечение (доверие 2) [36BAF370]
Трек 8 точное извлечение (доверие 2) [56E32FBF]
Трек 9 точное извлечение (доверие 2) [4DEA6197]
Трек 10 точное извлечение (доверие 2) [F7CA8E58]
Трек 11 точное извлечение (доверие 2) [933B9427]
Трек 12 точное извлечение (доверие 2) [B4D2906D]
Трек 13 точное извлечение (доверие 2) [F543D412]
Трек 14 точное извлечение (доверие 2) [49095169]
Трек 15 точное извлечение (доверие 2) [D76A8425]
Трек 16 точное извлечение (доверие 2) [7C16ADD6]
Трек 17 точное извлечение (доверие 2) [47FAEEE0]
Трек 18 точное извлечение (доверие 2) [5A73E267]
Все треки извлечены точно
Конец отчёта
Лог создания рипа CD3
Exact Audio Copy V0.99 prebeta 4 from 23. January 2008
Отчёт EAC об извлечении, выполненном 16. мая 2013, 23:02
Various / Hardcore Adrenaline 3 (CD3) - Bootlegs Mix
Дисковод: Optiarc DVD RW AD-7261S Adapter: 1 ID: 1
Режим чтения : Достоверность
Использование точного потока : Да
Отключение кэша аудио : Да
Использование указателей C2 : Нет
Коррекция смещения при чтении : 48
Способность читать области Lead-in и Lead-out : Нет
Заполнение пропущенных сэмплов тишиной : Да
Удаление блоков с тишиной в начале и конце : Нет
При вычислениях CRC использовались нулевые сэмплы : Да
Интерфейс : Встроенный Win32-интерфейс для Win NT/2000
Выходной формат : Внутренние WAV-операции
Формат сэмплов : 44.100 Гц; 16 бит; стерео
TOC извлечённого CD
Трек | Старт | Длительность | Начальный сектор | Конечный сектор
---------------------------------------------------------------------
1 | 0:00.00 | 3:51.55 | 0 | 17379
2 | 3:51.55 | 4:12.33 | 17380 | 36312
3 | 8:04.13 | 2:35.74 | 36313 | 48011
4 | 10:40.12 | 4:16.65 | 48012 | 67276
5 | 14:57.02 | 4:13.70 | 67277 | 86321
6 | 19:10.72 | 3:31.17 | 86322 | 102163
7 | 22:42.14 | 4:13.67 | 102164 | 121205
8 | 26:56.06 | 3:13.21 | 121206 | 135701
9 | 30:09.27 | 3:29.62 | 135702 | 151438
10 | 33:39.14 | 3:35.28 | 151439 | 167591
11 | 37:14.42 | 4:03.02 | 167592 | 185818
12 | 41:17.44 | 3:10.44 | 185819 | 200112
13 | 44:28.13 | 3:51.70 | 200113 | 217507
14 | 48:20.08 | 4:00.16 | 217508 | 235523
15 | 52:20.24 | 3:46.31 | 235524 | 252504
16 | 56:06.55 | 3:29.62 | 252505 | 268241
17 | 59:36.42 | 3:40.63 | 268242 | 284804
18 | 63:17.30 | 4:36.07 | 284805 | 305511
19 | 67:53.37 | 3:35.27 | 305512 | 321663
20 | 71:28.64 | 3:41.07 | 321664 | 338245
Характеристики диапазона извлечения и сообщения об ошибках
Выбранный диапазон
Имя файла C:\Users\Meijin\Desktop\Новая папка (4)\Various - Hardcore Adrenaline 3 (CD3) - Bootlegs Mix.wav
Пиковый уровень 100.0 %
Качество диапазона 100.0 %
CRC теста 31C46E0D
CRC копии 31C46E0D
Копирование... OK
Ошибок не произошло
AccurateRip: сводка
Трек 1 точное извлечение (доверие 2) [6128E7EA]
Трек 2 точное извлечение (доверие 2) [D115C441]
Трек 3 точное извлечение (доверие 2) [FC54A8F1]
Трек 4 точное извлечение (доверие 2) [99946C39]
Трек 5 точное извлечение (доверие 2) [E3084161]
Трек 6 точное извлечение (доверие 2) [546FFD22]
Трек 7 точное извлечение (доверие 2) [3C93AEB8]
Трек 8 точное извлечение (доверие 2) [81A34BCC]
Трек 9 точное извлечение (доверие 2) [28E5E7CE]
Трек 10 точное извлечение (доверие 2) [AE29235E]
Трек 11 точное извлечение (доверие 2) [688D9365]
Трек 12 точное извлечение (доверие 2) [4A67F709]
Трек 13 точное извлечение (доверие 2) [4384DC33]
Трек 14 точное извлечение (доверие 2) [6A6E3A6D]
Трек 15 точное извлечение (доверие 2) [E9BEE04B]
Трек 16 точное извлечение (доверие 2) [45AB69A8]
Трек 17 точное извлечение (доверие 2) [CD54AF82]
Трек 18 точное извлечение (доверие 2) [49E44B66]
Трек 19 точное извлечение (доверие 2) [E4E55BB4]
Трек 20 точное извлечение (доверие 2) [78E3C1E9]
Все треки извлечены точно
Конец отчёта
MP3: http://realmt.org/viewtopic.php?t=4567995
[Профиль] [ЛС]
Показать сообщения:    
Ответить на тему

Текущее время: 20-Июн 18:10

Часовой пояс: UTC + 3



Вы не можете начинать темы
Вы не можете отвечать на сообщения
Вы не можете редактировать свои сообщения
Вы не можете удалять свои сообщения
Вы не можете голосовать в опросах
Вы не можете прикреплять файлы к сообщениям
Вы не можете скачивать файлы