Сегодня идет свободное скачивание без начисления Download

Дом летающих кинжалов / Shi mian mai fu / House of Flying Daggers (Чжан Имоу / Yimou Zhang) [2004, Китай, Гонконг, Боевик, фэнтези, мелодрама, драма, приключения, BD-DVD9 (Custom)] AVO (Ю. Живов) + Dub + Sub Rus

Ответить на тему
 
Автор Сообщение

Bot ®

Стаж: 11 месяцев 12 дней

Сообщений: 6

Создавать темы 13-Фев-2018 20:15

[Цитировать]

Дом летающих кинжалов / Shi mian mai fu / House of Flying Daggers
Страна: Китай, Гонконг
Студия: Beijing New Picture Film Co/ China Film Co-Production Corporation/ EDKO Film Ltd./ Elite Group Enterpri
Жанр: Боевик, фэнтези, мелодрама, драма, приключения
Год выпуска: 2004
Продолжительность: 01:54:37
Перевод 1: Авторский (одноголосый закадровый) Ю. Живов
Перевод 2: Профессиональный (дублированный)
Субтитры: Русские, русские на надписи, английские.
Оригинальная аудиодорожка: Китайский (Мандаринский)
Режиссер: Чжан Имоу / Yimou Zhang
В ролях: Такеши Канеширо, Энди Лау, Чжан Цзыи, Сун Даньдань, Чжао Хунфэй, Джан Гуо, Шу Чжан, Джиушен Ванг, Чжан Чжэнъюн, Ван Юнсинь.
Роли дублировали: Михаил Тихонов, Всеволод Кузнецов, Елена Соловьева, Ольга Зверева
Описание:
Джин до последней капли крови готов защищать прекрасную девушку-бунтарку, которую ему выпало сопровождать в опасном путешествии.Неожиданно воитель понимает, что за преданностью молодой женщине стоит другое и более сильное чувство — любовь.
Молодых со всех сторон преследуют опасности, вокруг плетутся коварные интриги, враги только и ждут случая, чтобы напасть.
За любовь им приходится отчаянно сражаться, но для них это не проблема, ведь они владеют всеми мыслимыми и немыслимыми приемами
восточных единоборств…
Доп. информация:
Для данного релиза, видео, звуковые дорожки, субтитры, основа для меню и чаптеры взяты с этого Blu-ray диска, за который спасибо AnryV. Видео сжато Rhozet Carbon Coder в CBR 7900, по инструкции за которую спасибо Mikky72. Меню было сделано в Adobe Photoshop. Диск собран полностью с помощью DVD-lab PRO 2.
Бонусы: Нет
Меню: Есть, анимированное и озвученное, язык английский
Сэмпл

Тип релиза: BD-DVD9 (Custom)
Контейнер: DVD-Video
Видео: PAL 16:9 (720x576) CBR -7900, Auto Letterboxed
Аудио 1: Русский AC3/ 5.1 / 48 kHz/ 448 kbps, Ю. Живов
Аудио 2: Русский AC3/ 5.1 / 48 kHz/ 448 kbps, Дубляж
Аудио 3: Китайский (Мандаринский) AC3/ 5.1 / 48 kHz / 448 kbps
Формат субтитров: prerendered (DVD/IDX+SUB)
Информация по сборке релиза
Используемый софт
MeGUI - HD-DVD/Blu-ray Streams Extractor - разборка блю-рея
Carbon Coder - конвертация видео
UsEac3To - распаковка DTS на wav
Adobe Audition 3.0 - перетяжка WAV из NTSC в PAL
Adobe Photoshop CS6 - прорисовка меню
Vegas Pro 9 - сборка звуковых дорожек ac3
FineReader 10 + SUPread + SubsCreator - перевод субтитров из формата .sub в .srt
Subtitle Workshop - подгонка субтитров
DVD-lab PRO 2 - сборка DVD
DvdReMakePro - "шлифовка" DVD.
BDInfo исходника
Disc Title: HoFD.2004.Blu-Ray_AV
Disc Size: 28 638 490 473 bytes
Protection: AACS
BD-Java: No
Extras: 50Hz Content
BDInfo: 0.5.8
Notes:
BDINFO HOME:
Cinema Squid
http://www.cinemasquid.com/blu-ray/tools/bdinfo
INCLUDES FORUMS REPORT FOR:
AVS Forum Blu-ray Audio and Video Specifications Thread
http://www.avsforum.com/avs-vb/showthread.php?t=1155731
********************
PLAYLIST: 00032.MPLS
********************
<--- BEGIN FORUMS PASTE --->
Код:
Total   Video
Title                                                           Codec   Length  Movie Size      Disc Size       Bitrate Bitrate Main Audio Track                          Secondary Audio Track
-----                                                           ------  ------- --------------  --------------  ------- ------- ------------------                        ---------------------
00032.MPLS                                                      VC-1    1:59:31 22 734 551 040  28 638 490 473  25,36   18,96   DTS-HD Hi-Res 5.1 2046Kbps (48kHz/24-bit) DTS 5.1 768Kbps (48kHz/24-bit)
Код:
DISC INFO:[br]
Disc Title:     HoFD.2004.Blu-Ray_AV
Disc Size:      28 638 490 473 bytes
Protection:     AACS
BD-Java:        No
Extras:         50Hz Content
BDInfo:         0.5.8[br]
PLAYLIST REPORT:[br]
Name:                   00032.MPLS
Length:                 1:59:31.664 (h:m:s.ms)
Size:                   22 734 551 040 bytes
Total Bitrate:          25,36 Mbps[br]
VIDEO:[br]
Codec                   Bitrate             Description
-----                   -------             -----------
VC-1 Video              18963 kbps          1080p / 23,976 fps / 16:9 / Advanced Profile 3[br]
AUDIO:[br]
Codec                           Language        Bitrate         Description
-----                           --------        -------         -----------
DTS-HD High-Res Audio           Russian         2046 kbps       5.1 / 48 kHz / 2046 kbps / 24-bit (DTS Core: 5.1 / 48 kHz / 1509 kbps / 24-bit)
DTS-HD High-Res Audio           Chinese         2046 kbps       5.1 / 48 kHz / 2046 kbps / 16-bit (DTS Core: 5.1 / 48 kHz / 1509 kbps / 16-bit)
DTS Audio                       Russian         768 kbps        5.1 / 48 kHz / 768 kbps / 24-bit[br]
SUBTITLES:[br]
Codec                           Language        Bitrate         Description
-----                           --------        -------         -----------
Presentation Graphics           Russian         0,090 kbps
Presentation Graphics           Russian         0,090 kbps
Presentation Graphics           Russian         10,628 kbps
Presentation Graphics           English         13,601 kbps[br]
FILES:[br]
Name            Time In         Length          Size            Total Bitrate
----            -------         ------          ----            -------------
00034.M2TS      0:00:00.000     1:59:31.664     22 734 551 040  25 360[br]
CHAPTERS:[br]
Number          Time In         Length          Avg Video Rate  Max 1-Sec Rate  Max 1-Sec Time  Max 5-Sec Rate  Max 5-Sec Time  Max 10Sec Rate  Max 10Sec Time  Avg Frame Size  Max Frame Size  Max Frame Time
------          -------         ------          --------------  --------------  --------------  --------------  --------------  --------------  --------------  --------------  --------------  --------------
1               0:00:00.000     0:01:13.490     11 021 kbps     24 803 kbps     00:00:11.052    17 570 kbps     00:00:07.132    16 754 kbps     00:00:01.960    58 253 bytes    256 041 bytes   00:00:02.919
2               0:01:13.490     0:10:02.893     20 101 kbps     29 017 kbps     00:10:23.289    27 226 kbps     00:10:03.185    26 201 kbps     00:09:58.389    104 799 bytes   366 788 bytes   00:10:21.746
3               0:11:16.384     0:08:04.775     23 670 kbps     37 634 kbps     00:18:28.941    33 559 kbps     00:18:28.941    30 657 kbps     00:14:06.428    123 403 bytes   399 838 bytes   00:18:29.024
4               0:19:21.160     0:03:53.524     14 911 kbps     22 074 kbps     00:23:13.225    17 814 kbps     00:20:04.494    16 805 kbps     00:23:04.591    77 740 bytes    304 226 bytes   00:19:44.183
5               0:23:14.684     0:11:19.220     16 862 kbps     30 601 kbps     00:32:00.001    24 941 kbps     00:31:21.921    23 396 kbps     00:34:03.750    87 909 bytes    405 650 bytes   00:30:50.932
6               0:34:33.905     0:08:33.221     16 270 kbps     27 617 kbps     00:39:41.170    23 518 kbps     00:39:39.293    22 884 kbps     00:39:15.353    84 825 bytes    351 716 bytes   00:40:48.779
7               0:43:07.126     0:10:36.010     22 828 kbps     40 121 kbps     00:44:18.656    32 137 kbps     00:47:11.370    31 115 kbps     00:49:59.204    119 013 bytes   379 509 bytes   00:47:13.413
8               0:53:43.136     0:09:08.631     16 152 kbps     31 890 kbps     01:01:12.210    29 121 kbps     01:01:10.416    28 169 kbps     01:01:10.124    84 211 bytes    405 150 bytes   01:00:12.483
9               1:02:51.768     0:07:45.339     23 120 kbps     40 391 kbps     01:08:11.921    33 727 kbps     01:04:39.292    29 440 kbps     01:04:35.830    120 534 bytes   436 030 bytes   01:07:45.895
10              1:10:37.107     0:08:03.232     17 416 kbps     30 962 kbps     01:15:57.844    28 187 kbps     01:15:56.426    26 994 kbps     01:15:51.421    90 797 bytes    330 565 bytes   01:15:24.144
11              1:18:40.340     0:09:15.096     17 829 kbps     27 073 kbps     01:19:14.624    23 474 kbps     01:19:13.081    22 987 kbps     01:25:53.857    92 953 bytes    335 563 bytes   01:27:54.435
12              1:27:55.436     0:06:08.284     16 505 kbps     24 807 kbps     01:30:42.270    23 321 kbps     01:30:42.019    22 766 kbps     01:30:35.012    86 051 bytes    325 076 bytes   01:34:02.720
13              1:34:03.721     0:07:07.260     20 823 kbps     31 869 kbps     01:36:46.634    29 242 kbps     01:36:46.634    28 967 kbps     01:36:46.634    108 563 bytes   394 376 bytes   01:35:59.378
14              1:41:10.981     0:06:22.048     20 136 kbps     32 956 kbps     01:47:08.130    28 296 kbps     01:47:04.334    26 469 kbps     01:47:02.457    104 982 bytes   374 493 bytes   01:44:09.534
15              1:47:33.029     0:06:48.825     26 775 kbps     43 722 kbps     01:50:40.216    34 268 kbps     01:48:32.881    31 846 kbps     01:48:32.881    140 107 bytes   353 896 bytes   01:50:40.300
16              1:54:21.854     0:05:09.809     7 231 kbps      14 289 kbps     01:58:57.213    13 648 kbps     01:58:56.754    13 128 kbps     01:58:54.585    38 157 bytes    206 925 bytes   01:58:56.963[br]
STREAM DIAGNOSTICS:[br]
File            PID             Type            Codec           Language                Seconds                 Bitrate                 Bytes           Packets
----            ---             ----            -----           --------                --------------          --------------          -------------   -----
00034.M2TS      4113 (0x1011)   0xEA            VC-1                                    7171,539                18 963                  16 999 400 693  92 491 726
00034.M2TS      4352 (0x1100)   0x85            DTS-HD HR       rus (Russian)           7171,539                2 046                   1 834 154 432   10 757 504
00034.M2TS      4353 (0x1101)   0x85            DTS-HD HR       zho (Chinese)           7171,539                2 046                   1 834 154 432   10 757 504
00034.M2TS      4354 (0x1102)   0x82            DTS             rus (Russian)           7171,539                755                     676 375 046     4 034 046
00034.M2TS      4608 (0x1200)   0x90            PGS             rus (Russian)           7171,539                0                       80 257          466
00034.M2TS      4609 (0x1201)   0x90            PGS             rus (Russian)           7171,539                0                       80 257          466
00034.M2TS      4610 (0x1202)   0x90            PGS             rus (Russian)           7171,539                11                      9 527 858       56 431
00034.M2TS      4611 (0x1203)   0x90            PGS             eng (English)           7171,539                14                      12 192 680      70 686
<---- END FORUMS PASTE ---->
QUICK SUMMARY:
Disc Title: HoFD.2004.Blu-Ray_AV
Disc Size: 28 638 490 473 bytes
Protection: AACS
BD-Java: No
Playlist: 00032.MPLS
Size: 22 734 551 040 bytes
Length: 1:59:31.664
Total Bitrate: 25,36 Mbps
Video: VC-1 Video / 18963 kbps / 1080p / 23,976 fps / 16:9 / Advanced Profile 3
Audio: Russian / DTS-HD High-Res Audio / 5.1 / 48 kHz / 2046 kbps / 24-bit (DTS Core: 5.1 / 48 kHz / 1509 kbps / 24-bit)
Audio: Chinese / DTS-HD High-Res Audio / 5.1 / 48 kHz / 2046 kbps / 16-bit (DTS Core: 5.1 / 48 kHz / 1509 kbps / 16-bit)
Audio: Russian / DTS Audio / 5.1 / 48 kHz / 768 kbps / 24-bit
Subtitle: Russian / 0,090 kbps
Subtitle: Russian / 0,090 kbps
Subtitle: Russian / 10,628 kbps
Subtitle: English / 13,601 kbps
DVDInfo
Title: DISTRIB
Size: 7.81 Gb ( 8 188 392 KBytes ) - DVD-9
Enabled regions: 1, 2, 3, 4, 5, 6, 7, 8
VTS_01 :
Play Length: 01:54:37
Video: PAL 16:9 (720x576) VBR, Auto Letterboxed
Audio:
Russian (Dolby AC3, 6 ch)
Russian (Dolby AC3, 6 ch)
Chinese (Dolby AC3, 6 ch)
Subtitles:
Russian
Russian
English
Скрипт
LoadPlugin("C:\Program Files\FFmpegSource2\ffms2.dll") #подключение декодера
FFVideoSource("D:\Video\House.mkv") #открытие видео
LoadPlugin("C:\Program Files\AutoYUY2\AutoYUY2.dll") #подключение плагина
AutoYUY2() #конверсия цветового пространства
LoadPlugin("C:\Program Files\ColorMatrix\ColorMatrix.dll") #подключение плагина
ColorMatrix(mode="Rec.709->Rec.601", inputFR=false, clamp=0) #16-235
AssumeFPS(25) #изменение частоты кадров под стандарт PAL 25 кадров/сек
BicubicResize(720, 576, 0, 0.5) #ресайз методом Catmull-Rom spline
AddBorders (0,0,0,0) #добавление черных полос
Отчёт DVD Lab
*** DVD Lab Pro Verification Log ***
5 - 24 - 2013 -- 21:21:59
************************
* *
* VMG Verification *
* *
************************
Number of VTS - 1
Number of Menus: 2
Menu 01 - Type - Dummy
Menu 02 - Type - Motion
Menu Video File E:\Working with DVD\House of flying daggers\11.Zastavka 2\universal.mpv
Frame size: 720 X 576
Frame rate 3 [1--23.976, 2--24, 4--29.97, 3--25, 5--30]
Aspect Ratio: 169 [43--4:3, 169--16:9]
MPEG Video Type: 2 [1--MPEG 1, 2--MPEG 2]
Chroma: 1 [1--4:2:0, 2--4:2:2, 3--4:4:4]
GOP 1, size - 389952
GOP 2, size - 390016
GOP 3, size - 370072
Menu Audio File E:\Working with DVD\House of flying daggers\11.Zastavka 2\universal.ac3
Audio type: AC3_Mot, Channel: 6, Sampling: 48000, Bitrate: 384000
Menu Sub-Picture File C:\Temp\553612488_tmpsub1.bmp
Picture size - 720 x 576
nMenu cell count - 1
Number of imported VTS: 0
************************
* *
* VTS Verification *
* *
************************
<<< VTS Number 1 >>>
Number of Titles: 1
Title 01 - Type - ES or PES
Segment 1, Video File E:\Working with DVD\House of flying daggers\3.Sborka\House-7900.m2v
Frame Size: 720 X 576
Frame Rate 3 [1--23.976, 2--24, 4--29.97, 3--25, 5--30]
Aspect Ratio: 169 [43--4:3, 169--16:9]
MPEG Video Type: 2 [1--MPEG 1, 2--MPEG 2]
Chroma: 1 [1--4:2:0, 2--4:2:2, 3--4:4:4]
GOP 1, size - 563828
GOP 2, size - 366594
GOP 3, size - 163593
Segment 1, Audio File E:\Working with DVD\House of flying daggers\3.Sborka\Givov.ac3
Audio type: AC3_Mot, Channel: 6, Sampling: 48000, Bitrate: 448000
Segment 1, Audio File E:\Working with DVD\House of flying daggers\3.Sborka\Dubl.ac3
Audio type: AC3_Mot, Channel: 6, Sampling: 48000, Bitrate: 448000
Segment 1, Audio File E:\Working with DVD\House of flying daggers\3.Sborka\Mandarin.ac3
Audio type: AC3_Mot, Channel: 6, Sampling: 48000, Bitrate: 448000
Segment 1, Subtitle File E:\Working with DVD\House of flying daggers\3.Sborka\Rus1.sp1
Segment 1, Subtitle File E:\Working with DVD\House of flying daggers\3.Sborka\Rus2.sp2
Segment 1, Subtitle File E:\Working with DVD\House of flying daggers\3.Sborka\En1.sp3
Number of Menus: 7
Menu 01 - Type - Dummy
Menu 02 - Type - Motion
Menu Video File E:\Working with DVD\House of flying daggers\8.Progect\menu 01.m2v
Frame size: 720 X 576
Frame rate 3 [1--23.976, 2--24, 4--29.97, 3--25, 5--30]
Aspect Ratio: 169 [43--4:3, 169--16:9]
MPEG Video Type: 2 [1--MPEG 1, 2--MPEG 2]
Chroma: 1 [1--4:2:0, 2--4:2:2, 3--4:4:4]
GOP 1, size - 267319
GOP 2, size - 295776
GOP 3, size - 96623
Menu Audio File E:\Working with DVD\House of flying daggers\4.Menu rabota\menu.ac3
Audio type: AC3_Mot, Channel: 6, Sampling: 48000, Bitrate: 448000
Menu Sub-Picture File C:\Temp\80065912_tmpsub1.bmp
Picture size - 720 x 576
nMenu cell count - 1
Menu 03 - Type - Motion
Menu Video File E:\Working with DVD\House of flying daggers\8.Progect\menu 02_b.m2v
Frame size: 720 X 576
Frame rate 3 [1--23.976, 2--24, 4--29.97, 3--25, 5--30]
Aspect Ratio: 169 [43--4:3, 169--16:9]
MPEG Video Type: 2 [1--MPEG 1, 2--MPEG 2]
Chroma: 1 [1--4:2:0, 2--4:2:2, 3--4:4:4]
GOP 1, size - 257999
GOP 2, size - 286493
GOP 3, size - 66978
Menu Audio File E:\Working with DVD\House of flying daggers\4.Menu rabota\menu.ac3
Audio type: AC3_Mot, Channel: 6, Sampling: 48000, Bitrate: 448000
Menu Sub-Picture File C:\Temp\80482920_tmpsub1.bmp
Picture size - 720 x 576
nMenu cell count - 1
Menu 04 - Type - Motion
Menu Video File E:\Working with DVD\House of flying daggers\8.Progect\menu 03a.m2v
Frame size: 720 X 576
Frame rate 3 [1--23.976, 2--24, 4--29.97, 3--25, 5--30]
Aspect Ratio: 169 [43--4:3, 169--16:9]
MPEG Video Type: 2 [1--MPEG 1, 2--MPEG 2]
Chroma: 1 [1--4:2:0, 2--4:2:2, 3--4:4:4]
GOP 1, size - 262330
GOP 2, size - 329992
GOP 3, size - 284952
Menu Audio File E:\Working with DVD\House of flying daggers\4.Menu rabota\menu.ac3
Audio type: AC3_Mot, Channel: 6, Sampling: 48000, Bitrate: 448000
Menu Sub-Picture File C:\Temp\80553360_tmpsub1.bmp
Picture size - 720 x 576
nMenu cell count - 1
Menu 05 - Type - Motion
Menu Video File E:\Working with DVD\House of flying daggers\8.Progect\menu 04a.m2v
Frame size: 720 X 576
Frame rate 3 [1--23.976, 2--24, 4--29.97, 3--25, 5--30]
Aspect Ratio: 169 [43--4:3, 169--16:9]
MPEG Video Type: 2 [1--MPEG 1, 2--MPEG 2]
Chroma: 1 [1--4:2:0, 2--4:2:2, 3--4:4:4]
GOP 1, size - 262899
GOP 2, size - 331339
GOP 3, size - 288847
Menu Audio File E:\Working with DVD\House of flying daggers\4.Menu rabota\menu.ac3
Audio type: AC3_Mot, Channel: 6, Sampling: 48000, Bitrate: 448000
Menu Sub-Picture File C:\Temp\80139536_tmpsub1.bmp
Picture size - 720 x 576
nMenu cell count - 1
Menu 06 - Type - Motion
Menu Video File E:\Working with DVD\House of flying daggers\8.Progect\menu 05.m2v
Frame size: 720 X 576
Frame rate 3 [1--23.976, 2--24, 4--29.97, 3--25, 5--30]
Aspect Ratio: 169 [43--4:3, 169--16:9]
MPEG Video Type: 2 [1--MPEG 1, 2--MPEG 2]
Chroma: 1 [1--4:2:0, 2--4:2:2, 3--4:4:4]
GOP 1, size - 266811
GOP 2, size - 287462
GOP 3, size - 81978
Menu Audio File E:\Working with DVD\House of flying daggers\4.Menu rabota\menu.ac3
Audio type: AC3_Mot, Channel: 6, Sampling: 48000, Bitrate: 448000
Menu Sub-Picture File C:\Temp\80154592_tmpsub1.bmp
Picture size - 720 x 576
nMenu cell count - 1
Menu 07 - Type - Motion
Menu Video File E:\Working with DVD\House of flying daggers\8.Progect\menu 06.m2v
Frame size: 720 X 576
Frame rate 3 [1--23.976, 2--24, 4--29.97, 3--25, 5--30]
Aspect Ratio: 169 [43--4:3, 169--16:9]
MPEG Video Type: 2 [1--MPEG 1, 2--MPEG 2]
Chroma: 1 [1--4:2:0, 2--4:2:2, 3--4:4:4]
GOP 1, size - 264785
GOP 2, size - 286120
GOP 3, size - 77136
Menu Audio File E:\Working with DVD\House of flying daggers\4.Menu rabota\menu.ac3
Audio type: AC3_Mot, Channel: 6, Sampling: 48000, Bitrate: 448000
Menu Sub-Picture File C:\Temp\80169648_tmpsub1.bmp
Picture size - 720 x 576
nMenu cell count - 1
************************
* *
* Status Messages *
* *
************************
Start building Video Title Set ( VTS ) ... - 2001
Title - 1
Start building VOB streams - 2210
Muxing elementary streams is in process ... - 2220
Initializing audio packets ... - 3005
Initializing AC3 (MOT) audio packet ... - 3030
Initializing audio packets ... - 3005
Initializing AC3 (MOT) audio packet ... - 3030
Initializing audio packets ... - 3005
Initializing AC3 (MOT) audio packet ... - 3030
Muxing is in process ... - 2300
Audio packetizing ends - 3025
Audio packetizing ends - 3025
Audio packetizing ends - 3025
Creating PGC for the title is in process ... - 2500
Creating dummy menu is in process ... - 2790
Creating motion menu is in process ... - 2600
Initializing audio packets ... - 3005
Initializing AC3 (MOT) audio packet ... - 3030
Muxing is in process ... - 2300
Audio packetizing ends - 3025
Creating motion menu is in process ... - 2600
Initializing audio packets ... - 3005
Initializing AC3 (MOT) audio packet ... - 3030
Muxing is in process ... - 2300
Audio packetizing ends - 3025
Creating motion menu is in process ... - 2600
Initializing audio packets ... - 3005
Initializing AC3 (MOT) audio packet ... - 3030
Muxing is in process ... - 2300
Audio packetizing ends - 3025
Creating motion menu is in process ... - 2600
Initializing audio packets ... - 3005
Initializing AC3 (MOT) audio packet ... - 3030
Muxing is in process ... - 2300
Audio packetizing ends - 3025
Creating motion menu is in process ... - 2600
Initializing audio packets ... - 3005
Initializing AC3 (MOT) audio packet ... - 3030
Muxing is in process ... - 2300
Audio packetizing ends - 3025
Creating motion menu is in process ... - 2600
Initializing audio packets ... - 3005
Initializing AC3 (MOT) audio packet ... - 3030
Muxing is in process ... - 2300
Audio packetizing ends - 3025
Building VTS IFO stream is in process ... - 2800
Start building Video Manager (VMG) ... - 2005
Creating dummy menu is in process ... - 2790
Creating motion menu is in process ... - 2600
Initializing audio packets ... - 3005
Initializing AC3 (MOT) audio packet ... - 3030
Muxing is in process ... - 2300
Audio packetizing ends - 3025
Building VMG IFO stream is in process ... - 2850
*** Post Verification ***
No error was found in the post verification process
Authoring is successfully completed - 3900
Скриншот MeGUI - HD-DVD/Blu-ray Streams Extractor
Скриншоты Carbon Coder
Скриншоты UsEac3To
Скриншот Adobe Audition 3.0
Скриншоты Vegas Pro
Скриншот DVD-lab PRO 2
Точка перехода
Скриншоты DvdReMakePro
MediaInfo
Общее
Полное имя : D:\Shi mian mai fu_2004\VIDEO_TS\VIDEO_TS.BUP
Формат : DVD Video
Профиль формата : Menu
Размер файла : 12,0 Кбайт
Режим общего битрейта : Переменный
Видео
Идентификатор : 224 (0xE0)
Формат : MPEG Video
Версия формата : Version 2
Вид битрейта : Переменный
Ширина : 720 пикселей
Высота : 576 пикселей
Соотношение сторон : 16:9
Частота кадров : 25,000 кадров/сек
Стандарт вещания : PAL
Метод сжатия : С потерями
Аудио
Формат : AC-3
Формат/Информация : Audio Coding 3
Каналы : 6 каналов
Частота : 48,0 КГц
Метод сжатия : С потерями
Текст
Формат : RLE
Формат/Информация : Run-length encoding
Битовая глубина : 2 бит
Общее
Полное имя : D:\Shi mian mai fu_2004\VIDEO_TS\VIDEO_TS.IFO
Формат : DVD Video
Профиль формата : Menu
Размер файла : 12,0 Кбайт
Режим общего битрейта : Переменный
Видео
Идентификатор : 224 (0xE0)
Формат : MPEG Video
Версия формата : Version 2
Вид битрейта : Переменный
Ширина : 720 пикселей
Высота : 576 пикселей
Соотношение сторон : 16:9
Частота кадров : 25,000 кадров/сек
Стандарт вещания : PAL
Метод сжатия : С потерями
Аудио
Формат : AC-3
Формат/Информация : Audio Coding 3
Каналы : 6 каналов
Частота : 48,0 КГц
Метод сжатия : С потерями
Текст
Формат : RLE
Формат/Информация : Run-length encoding
Битовая глубина : 2 бит
Общее
Полное имя : D:\Shi mian mai fu_2004\VIDEO_TS\VIDEO_TS.VOB
Формат : MPEG-PS
Размер файла : 19,2 Мбайт
Продолжительность : 22 с.
Общий поток : 7025 Кбит/сек
Видео
Идентификатор : 224 (0xE0)
Формат : MPEG Video
Версия формата : Version 2
Профиль формата : Main@Main
Параметр BVOP формата : Да
Параметр матрицы формата : Выборочная
Параметр GOP формата : M=3, N=12
Продолжительность : 22 с.
Битрейт : 6500 Кбит/сек
Ширина : 720 пикселей
Высота : 576 пикселей
Соотношение сторон : 16:9
Частота кадров : 25,000 кадров/сек
Стандарт вещания : PAL
Цветовое пространство : YUV
Субдискретизация насыщенности : 4:2:0
Битовая глубина : 8 бит
Тип развёртки : Прогрессивная
Порядок развёртки : Верхнее поле первое
Метод сжатия : С потерями
Бит/(Пиксели*Кадры) : 0.627
TimeCode_FirstFrame : 00:59:58:00
TimeCode_Source : Group of pictures header
Размер потока : 17,8 Мбайт (93%)
Аудио
Идентификатор : 189 (0xBD)-128 (0x80)
Формат : AC-3
Формат/Информация : Audio Coding 3
Расширение режима : CM (complete main)
Параметр Endianness формата : Big
Режим смешивания : DVD-Video
Продолжительность : 22 с.
Вид битрейта : Постоянный
Битрейт : 384 Кбит/сек
Каналы : 6 каналов
Расположение каналов : Front: L C R, Side: L R, LFE
Частота : 48,0 КГц
Битовая глубина : 16 бит
Метод сжатия : С потерями
Размер потока : 1,04 Мбайт (5%)
Текст #1
Идентификатор : 189 (0xBD)-32 (0x20)
Формат : RLE
Формат/Информация : Run-length encoding
Режим смешивания : DVD-Video
Текст #2
Идентификатор : 189 (0xBD)-34 (0x22)
Формат : RLE
Формат/Информация : Run-length encoding
Режим смешивания : DVD-Video
Меню
Общее
Полное имя : D:\Shi mian mai fu_2004\VIDEO_TS\VTS_01_0.BUP
Формат : DVD Video
Профиль формата : Program
Размер файла : 72,0 Кбайт
Продолжительность : 1 ч. 54 м.
Режим общего битрейта : Переменный
Общий поток : 86 бит/сек
Видео
Идентификатор : 224 (0xE0)
Формат : MPEG Video
Версия формата : Version 2
Продолжительность : 1 ч. 54 м.
Вид битрейта : Переменный
Ширина : 720 пикселей
Высота : 576 пикселей
Соотношение сторон : 16:9
Частота кадров : 25,000 кадров/сек
Стандарт вещания : PAL
Метод сжатия : С потерями
Аудио #1
Идентификатор : 128 (0x80)
Формат : AC-3
Формат/Информация : Audio Coding 3
Продолжительность : 1 ч. 54 м.
Каналы : 6 каналов
Частота : 48,0 КГц
Метод сжатия : С потерями
Язык : Russian
Аудио #2
Идентификатор : 129 (0x81)
Формат : AC-3
Формат/Информация : Audio Coding 3
Продолжительность : 1 ч. 54 м.
Каналы : 6 каналов
Частота : 48,0 КГц
Метод сжатия : С потерями
Язык : Russian
Аудио #3
Идентификатор : 130 (0x82)
Формат : AC-3
Формат/Информация : Audio Coding 3
Продолжительность : 1 ч. 54 м.
Каналы : 6 каналов
Частота : 48,0 КГц
Метод сжатия : С потерями
Язык : Chinese
Текст #1
Идентификатор : 32 (0x20)
Формат : RLE
Формат/Информация : Run-length encoding
Битовая глубина : 2 бит
Язык : Russian
Текст #2
Идентификатор : 33 (0x21)
Формат : RLE
Формат/Информация : Run-length encoding
Битовая глубина : 2 бит
Язык : Russian
Текст #3
Идентификатор : 34 (0x22)
Формат : RLE
Формат/Информация : Run-length encoding
Битовая глубина : 2 бит
Язык : English
Меню
Продолжительность : 1 ч. 54 м.
00:00:00.000 : Chapter 1
00:02:01.080 : Chapter 2
00:10:34.200 : Chapter 3
00:18:18.400 : Chapter 4
00:26:27.600 : Chapter 5
00:32:54.360 : Chapter 6
00:41:06.040 : Chapter 7
00:51:15.520 : Chapter 8
00:56:08.280 : Chapter 9
01:00:02.400 : Chapter 10
01:07:28.760 : Chapter 11
01:15:11.840 : Chapter 12
01:24:04.280 : Chapter 13
01:33:21.800 : Chapter 14
01:38:10.520 : Chapter 15
01:43:16.040 : Chapter 16
01:49:21.640 : Chapter 17
01:54:36.640 : Chapter 18
List (Audio) : 0 / 1 / 2
List (Subtitles 4/3) : 0 / 1 / 2
List (Subtitles Wide) : 0 / 1 / 2
List (Subtitles Letterbox) : 0 / 1 / 2
List (Subtitles Pan&Scan) : 0 / 1 / 2
Общее
Полное имя : D:\Shi mian mai fu_2004\VIDEO_TS\VTS_01_0.IFO
Формат : DVD Video
Профиль формата : Program
Размер файла : 72,0 Кбайт
Продолжительность : 1 ч. 54 м.
Режим общего битрейта : Переменный
Общий поток : 86 бит/сек
Видео
Идентификатор : 224 (0xE0)
Формат : MPEG Video
Версия формата : Version 2
Продолжительность : 1 ч. 54 м.
Вид битрейта : Переменный
Ширина : 720 пикселей
Высота : 576 пикселей
Соотношение сторон : 16:9
Частота кадров : 25,000 кадров/сек
Стандарт вещания : PAL
Метод сжатия : С потерями
Аудио #1
Идентификатор : 128 (0x80)
Формат : AC-3
Формат/Информация : Audio Coding 3
Продолжительность : 1 ч. 54 м.
Каналы : 6 каналов
Частота : 48,0 КГц
Метод сжатия : С потерями
Язык : Russian
Аудио #2
Идентификатор : 129 (0x81)
Формат : AC-3
Формат/Информация : Audio Coding 3
Продолжительность : 1 ч. 54 м.
Каналы : 6 каналов
Частота : 48,0 КГц
Метод сжатия : С потерями
Язык : Russian
Аудио #3
Идентификатор : 130 (0x82)
Формат : AC-3
Формат/Информация : Audio Coding 3
Продолжительность : 1 ч. 54 м.
Каналы : 6 каналов
Частота : 48,0 КГц
Метод сжатия : С потерями
Язык : Chinese
Текст #1
Идентификатор : 32 (0x20)
Формат : RLE
Формат/Информация : Run-length encoding
Битовая глубина : 2 бит
Язык : Russian
Текст #2
Идентификатор : 33 (0x21)
Формат : RLE
Формат/Информация : Run-length encoding
Битовая глубина : 2 бит
Язык : Russian
Текст #3
Идентификатор : 34 (0x22)
Формат : RLE
Формат/Информация : Run-length encoding
Битовая глубина : 2 бит
Язык : English
Меню
Продолжительность : 1 ч. 54 м.
00:00:00.000 : Chapter 1
00:02:01.080 : Chapter 2
00:10:34.200 : Chapter 3
00:18:18.400 : Chapter 4
00:26:27.600 : Chapter 5
00:32:54.360 : Chapter 6
00:41:06.040 : Chapter 7
00:51:15.520 : Chapter 8
00:56:08.280 : Chapter 9
01:00:02.400 : Chapter 10
01:07:28.760 : Chapter 11
01:15:11.840 : Chapter 12
01:24:04.280 : Chapter 13
01:33:21.800 : Chapter 14
01:38:10.520 : Chapter 15
01:43:16.040 : Chapter 16
01:49:21.640 : Chapter 17
01:54:36.640 : Chapter 18
List (Audio) : 0 / 1 / 2
List (Subtitles 4/3) : 0 / 1 / 2
List (Subtitles Wide) : 0 / 1 / 2
List (Subtitles Letterbox) : 0 / 1 / 2
List (Subtitles Pan&Scan) : 0 / 1 / 2
Общее
Полное имя : D:\Shi mian mai fu_2004\VIDEO_TS\VTS_01_0.VOB
Формат : MPEG-PS
Размер файла : 268 Мбайт
Продолжительность : 53 с.
Режим общего битрейта : Переменный
Общий поток : 42,3 Мбит/сек
Видео
Идентификатор : 224 (0xE0)
Формат : MPEG Video
Версия формата : Version 2
Профиль формата : Main@Main
Параметр BVOP формата : Да
Параметр матрицы формата : По умолчанию
Параметр GOP формата : M=3, N=12
Продолжительность : 53 с.
Вид битрейта : Переменный
Битрейт : 41,1 Мбит/сек
Максимальный битрейт : 9100 Кбит/сек
Ширина : 720 пикселей
Высота : 576 пикселей
Соотношение сторон : 16:9
Частота кадров : 25,000 кадров/сек
Стандарт вещания : PAL
Цветовое пространство : YUV
Субдискретизация насыщенности : 4:2:0
Битовая глубина : 8 бит
Тип развёртки : Прогрессивная
Метод сжатия : С потерями
Бит/(Пиксели*Кадры) : 3.959
TimeCode_FirstFrame : 00:00:00:00
TimeCode_Source : Group of pictures header
Размер потока : 260 Мбайт (97%)
Основные цвета : BT.601 PAL
Характеристики трансфера : BT.470 System B, BT.470 System G
Коэффициенты матрицы : BT.601
Аудио
Идентификатор : 189 (0xBD)-128 (0x80)
Формат : AC-3
Формат/Информация : Audio Coding 3
Расширение режима : CM (complete main)
Параметр Endianness формата : Big
Режим смешивания : DVD-Video
Продолжительность : 52 с.
Вид битрейта : Постоянный
Битрейт : 448 Кбит/сек
Каналы : 6 каналов
Расположение каналов : Front: L C R, Side: L R, LFE
Частота : 48,0 КГц
Битовая глубина : 16 бит
Метод сжатия : С потерями
Размер потока : 2,82 Мбайт (1%)
Текст #1
Идентификатор : 189 (0xBD)-32 (0x20)
Формат : RLE
Формат/Информация : Run-length encoding
Режим смешивания : DVD-Video
Текст #2
Идентификатор : 189 (0xBD)-34 (0x22)
Формат : RLE
Формат/Информация : Run-length encoding
Режим смешивания : DVD-Video
Меню
Общее
Полное имя : D:\Shi mian mai fu_2004\VIDEO_TS\VTS_01_1.VOB
Формат : MPEG-PS
Размер файла : 1024 Мбайт
Продолжительность : 15 м.
Общий поток : 9405 Кбит/сек
Видео
Идентификатор : 224 (0xE0)
Формат : MPEG Video
Версия формата : Version 2
Профиль формата : Main@Main
Параметр BVOP формата : Да
Параметр матрицы формата : Выборочная
Параметр GOP формата : Variable
Продолжительность : 15 м.
Битрейт : 7900 Кбит/сек
Ширина : 720 пикселей
Высота : 576 пикселей
Соотношение сторон : 16:9
Частота кадров : 25,000 кадров/сек
Стандарт вещания : PAL
Цветовое пространство : YUV
Субдискретизация насыщенности : 4:2:0
Битовая глубина : 8 бит
Тип развёртки : Прогрессивная
Метод сжатия : С потерями
Бит/(Пиксели*Кадры) : 0.762
TimeCode_FirstFrame : 00:00:00:00
TimeCode_Source : Group of pictures header
Размер потока : 857 Мбайт (84%)
Аудио #1
Идентификатор : 189 (0xBD)-128 (0x80)
Формат : AC-3
Формат/Информация : Audio Coding 3
Расширение режима : CM (complete main)
Параметр Endianness формата : Big
Режим смешивания : DVD-Video
Продолжительность : 15 м.
Вид битрейта : Постоянный
Битрейт : 448 Кбит/сек
Каналы : 6 каналов
Расположение каналов : Front: L C R, Side: L R, LFE
Частота : 48,0 КГц
Битовая глубина : 16 бит
Метод сжатия : С потерями
Размер потока : 48,8 Мбайт (5%)
Аудио #2
Идентификатор : 189 (0xBD)-129 (0x81)
Формат : AC-3
Формат/Информация : Audio Coding 3
Расширение режима : CM (complete main)
Параметр Endianness формата : Big
Режим смешивания : DVD-Video
Продолжительность : 15 м.
Вид битрейта : Постоянный
Битрейт : 448 Кбит/сек
Каналы : 6 каналов
Расположение каналов : Front: L C R, Side: L R, LFE
Частота : 48,0 КГц
Битовая глубина : 16 бит
Метод сжатия : С потерями
Размер потока : 48,8 Мбайт (5%)
Аудио #3
Идентификатор : 189 (0xBD)-130 (0x82)
Формат : AC-3
Формат/Информация : Audio Coding 3
Расширение режима : CM (complete main)
Параметр Endianness формата : Big
Режим смешивания : DVD-Video
Продолжительность : 15 м.
Вид битрейта : Постоянный
Битрейт : 448 Кбит/сек
Каналы : 6 каналов
Расположение каналов : Front: L C R, Side: L R, LFE
Частота : 48,0 КГц
Битовая глубина : 16 бит
Метод сжатия : С потерями
Размер потока : 48,8 Мбайт (5%)
Меню
Общее
Полное имя : D:\Shi mian mai fu_2004\VIDEO_TS\VTS_01_2.VOB
Формат : MPEG-PS
Размер файла : 1024 Мбайт
Продолжительность : 15 м.
Общий поток : 9404 Кбит/сек
Видео
Идентификатор : 224 (0xE0)
Формат : MPEG Video
Версия формата : Version 2
Профиль формата : Main@Main
Параметр BVOP формата : Да
Параметр матрицы формата : Выборочная
Параметр GOP формата : Variable
Продолжительность : 15 м.
Битрейт : 7900 Кбит/сек
Ширина : 720 пикселей
Высота : 576 пикселей
Соотношение сторон : 16:9
Частота кадров : 25,000 кадров/сек
Стандарт вещания : PAL
Цветовое пространство : YUV
Субдискретизация насыщенности : 4:2:0
Битовая глубина : 8 бит
Тип развёртки : Прогрессивная
Метод сжатия : С потерями
Бит/(Пиксели*Кадры) : 0.762
TimeCode_FirstFrame : 00:15:13:08
TimeCode_Source : Group of pictures header
Размер потока : 857 Мбайт (84%)
Аудио #1
Идентификатор : 189 (0xBD)-128 (0x80)
Формат : AC-3
Формат/Информация : Audio Coding 3
Расширение режима : CM (complete main)
Параметр Endianness формата : Big
Режим смешивания : DVD-Video
Продолжительность : 15 м.
Вид битрейта : Постоянный
Битрейт : 448 Кбит/сек
Каналы : 6 каналов
Расположение каналов : Front: L C R, Side: L R, LFE
Частота : 48,0 КГц
Битовая глубина : 16 бит
Метод сжатия : С потерями
Задержка видео : -344 мс.
Размер потока : 48,8 Мбайт (5%)
Аудио #2
Идентификатор : 189 (0xBD)-129 (0x81)
Формат : AC-3
Формат/Информация : Audio Coding 3
Расширение режима : CM (complete main)
Параметр Endianness формата : Big
Режим смешивания : DVD-Video
Продолжительность : 15 м.
Вид битрейта : Постоянный
Битрейт : 448 Кбит/сек
Каналы : 6 каналов
Расположение каналов : Front: L C R, Side: L R, LFE
Частота : 48,0 КГц
Битовая глубина : 16 бит
Метод сжатия : С потерями
Задержка видео : -344 мс.
Размер потока : 48,8 Мбайт (5%)
Аудио #3
Идентификатор : 189 (0xBD)-130 (0x82)
Формат : AC-3
Формат/Информация : Audio Coding 3
Расширение режима : CM (complete main)
Параметр Endianness формата : Big
Режим смешивания : DVD-Video
Продолжительность : 15 м.
Вид битрейта : Постоянный
Битрейт : 448 Кбит/сек
Каналы : 6 каналов
Расположение каналов : Front: L C R, Side: L R, LFE
Частота : 48,0 КГц
Битовая глубина : 16 бит
Метод сжатия : С потерями
Задержка видео : -344 мс.
Размер потока : 48,8 Мбайт (5%)
Меню
Общее
Полное имя : D:\Shi mian mai fu_2004\VIDEO_TS\VTS_01_3.VOB
Формат : MPEG-PS
Размер файла : 1024 Мбайт
Продолжительность : 15 м.
Общий поток : 9402 Кбит/сек
Видео
Идентификатор : 224 (0xE0)
Формат : MPEG Video
Версия формата : Version 2
Профиль формата : Main@Main
Параметр BVOP формата : Да
Параметр матрицы формата : Выборочная
Параметр GOP формата : Variable
Продолжительность : 15 м.
Битрейт : 7900 Кбит/сек
Ширина : 720 пикселей
Высота : 576 пикселей
Соотношение сторон : 16:9
Частота кадров : 25,000 кадров/сек
Стандарт вещания : PAL
Цветовое пространство : YUV
Субдискретизация насыщенности : 4:2:0
Битовая глубина : 8 бит
Тип развёртки : Прогрессивная
Метод сжатия : С потерями
Бит/(Пиксели*Кадры) : 0.762
TimeCode_FirstFrame : 00:30:27:04
TimeCode_Source : Group of pictures header
Размер потока : 857 Мбайт (84%)
Аудио #1
Идентификатор : 189 (0xBD)-128 (0x80)
Формат : AC-3
Формат/Информация : Audio Coding 3
Расширение режима : CM (complete main)
Параметр Endianness формата : Big
Режим смешивания : DVD-Video
Продолжительность : 15 м.
Вид битрейта : Постоянный
Битрейт : 448 Кбит/сек
Каналы : 6 каналов
Расположение каналов : Front: L C R, Side: L R, LFE
Частота : 48,0 КГц
Битовая глубина : 16 бит
Метод сжатия : С потерями
Задержка видео : -744 мс.
Размер потока : 48,8 Мбайт (5%)
Аудио #2
Идентификатор : 189 (0xBD)-129 (0x81)
Формат : AC-3
Формат/Информация : Audio Coding 3
Расширение режима : CM (complete main)
Параметр Endianness формата : Big
Режим смешивания : DVD-Video
Продолжительность : 15 м.
Вид битрейта : Постоянный
Битрейт : 448 Кбит/сек
Каналы : 6 каналов
Расположение каналов : Front: L C R, Side: L R, LFE
Частота : 48,0 КГц
Битовая глубина : 16 бит
Метод сжатия : С потерями
Задержка видео : -744 мс.
Размер потока : 48,8 Мбайт (5%)
Аудио #3
Идентификатор : 189 (0xBD)-130 (0x82)
Формат : AC-3
Формат/Информация : Audio Coding 3
Расширение режима : CM (complete main)
Параметр Endianness формата : Big
Режим смешивания : DVD-Video
Продолжительность : 15 м.
Вид битрейта : Постоянный
Битрейт : 448 Кбит/сек
Каналы : 6 каналов
Расположение каналов : Front: L C R, Side: L R, LFE
Частота : 48,0 КГц
Битовая глубина : 16 бит
Метод сжатия : С потерями
Задержка видео : -744 мс.
Размер потока : 48,8 Мбайт (5%)
Меню
Общее
Полное имя : D:\Shi mian mai fu_2004\VIDEO_TS\VTS_01_4.VOB
Формат : MPEG-PS
Размер файла : 1024 Мбайт
Продолжительность : 15 м.
Общий поток : 9403 Кбит/сек
Видео
Идентификатор : 224 (0xE0)
Формат : MPEG Video
Версия формата : Version 2
Профиль формата : Main@Main
Параметр BVOP формата : Да
Параметр матрицы формата : Выборочная
Параметр GOP формата : Variable
Продолжительность : 15 м.
Битрейт : 7900 Кбит/сек
Ширина : 720 пикселей
Высота : 576 пикселей
Соотношение сторон : 16:9
Частота кадров : 25,000 кадров/сек
Стандарт вещания : PAL
Цветовое пространство : YUV
Субдискретизация насыщенности : 4:2:0
Битовая глубина : 8 бит
Тип развёртки : Прогрессивная
Метод сжатия : С потерями
Бит/(Пиксели*Кадры) : 0.762
TimeCode_FirstFrame : 00:45:40:13
TimeCode_Source : Group of pictures header
Размер потока : 857 Мбайт (84%)
Аудио #1
Идентификатор : 189 (0xBD)-128 (0x80)
Формат : AC-3
Формат/Информация : Audio Coding 3
Расширение режима : CM (complete main)
Параметр Endianness формата : Big
Режим смешивания : DVD-Video
Продолжительность : 15 м.
Вид битрейта : Постоянный
Битрейт : 448 Кбит/сек
Каналы : 6 каналов
Расположение каналов : Front: L C R, Side: L R, LFE
Частота : 48,0 КГц
Битовая глубина : 16 бит
Метод сжатия : С потерями
Задержка видео : -472 мс.
Размер потока : 48,8 Мбайт (5%)
Аудио #2
Идентификатор : 189 (0xBD)-129 (0x81)
Формат : AC-3
Формат/Информация : Audio Coding 3
Расширение режима : CM (complete main)
Параметр Endianness формата : Big
Режим смешивания : DVD-Video
Продолжительность : 15 м.
Вид битрейта : Постоянный
Битрейт : 448 Кбит/сек
Каналы : 6 каналов
Расположение каналов : Front: L C R, Side: L R, LFE
Частота : 48,0 КГц
Битовая глубина : 16 бит
Метод сжатия : С потерями
Задержка видео : -472 мс.
Размер потока : 48,8 Мбайт (5%)
Аудио #3
Идентификатор : 189 (0xBD)-130 (0x82)
Формат : AC-3
Формат/Информация : Audio Coding 3
Расширение режима : CM (complete main)
Параметр Endianness формата : Big
Режим смешивания : DVD-Video
Продолжительность : 15 м.
Вид битрейта : Постоянный
Битрейт : 448 Кбит/сек
Каналы : 6 каналов
Расположение каналов : Front: L C R, Side: L R, LFE
Частота : 48,0 КГц
Битовая глубина : 16 бит
Метод сжатия : С потерями
Задержка видео : -472 мс.
Размер потока : 48,8 Мбайт (5%)
Меню
Общее
Полное имя : D:\Shi mian mai fu_2004\VIDEO_TS\VTS_01_5.VOB
Формат : MPEG-PS
Размер файла : 1024 Мбайт
Продолжительность : 15 м.
Общий поток : 9405 Кбит/сек
Видео
Идентификатор : 224 (0xE0)
Формат : MPEG Video
Версия формата : Version 2
Профиль формата : Main@Main
Параметр BVOP формата : Да
Параметр матрицы формата : Выборочная
Параметр GOP формата : Variable
Продолжительность : 15 м.
Битрейт : 7900 Кбит/сек
Ширина : 720 пикселей
Высота : 576 пикселей
Соотношение сторон : 16:9
Частота кадров : 25,000 кадров/сек
Стандарт вещания : PAL
Цветовое пространство : YUV
Субдискретизация насыщенности : 4:2:0
Битовая глубина : 8 бит
Тип развёртки : Прогрессивная
Метод сжатия : С потерями
Бит/(Пиксели*Кадры) : 0.762
TimeCode_FirstFrame : 01:00:54:08
TimeCode_Source : Group of pictures header
Размер потока : 857 Мбайт (84%)
Аудио #1
Идентификатор : 189 (0xBD)-128 (0x80)
Формат : AC-3
Формат/Информация : Audio Coding 3
Расширение режима : CM (complete main)
Параметр Endianness формата : Big
Режим смешивания : DVD-Video
Продолжительность : 15 м.
Вид битрейта : Постоянный
Битрейт : 448 Кбит/сек
Каналы : 6 каналов
Расположение каналов : Front: L C R, Side: L R, LFE
Частота : 48,0 КГц
Битовая глубина : 16 бит
Метод сжатия : С потерями
Задержка видео : -672 мс.
Размер потока : 48,8 Мбайт (5%)
Аудио #2
Идентификатор : 189 (0xBD)-129 (0x81)
Формат : AC-3
Формат/Информация : Audio Coding 3
Расширение режима : CM (complete main)
Параметр Endianness формата : Big
Режим смешивания : DVD-Video
Продолжительность : 15 м.
Вид битрейта : Постоянный
Битрейт : 448 Кбит/сек
Каналы : 6 каналов
Расположение каналов : Front: L C R, Side: L R, LFE
Частота : 48,0 КГц
Битовая глубина : 16 бит
Метод сжатия : С потерями
Задержка видео : -672 мс.
Размер потока : 48,8 Мбайт (5%)
Аудио #3
Идентификатор : 189 (0xBD)-130 (0x82)
Формат : AC-3
Формат/Информация : Audio Coding 3
Расширение режима : CM (complete main)
Параметр Endianness формата : Big
Режим смешивания : DVD-Video
Продолжительность : 15 м.
Вид битрейта : Постоянный
Битрейт : 448 Кбит/сек
Каналы : 6 каналов
Расположение каналов : Front: L C R, Side: L R, LFE
Частота : 48,0 КГц
Битовая глубина : 16 бит
Метод сжатия : С потерями
Задержка видео : -672 мс.
Размер потока : 48,8 Мбайт (5%)
Меню
Общее
Полное имя : D:\Shi mian mai fu_2004\VIDEO_TS\VTS_01_6.VOB
Формат : MPEG-PS
Размер файла : 1024 Мбайт
Продолжительность : 15 м.
Общий поток : 9402 Кбит/сек
Видео
Идентификатор : 224 (0xE0)
Формат : MPEG Video
Версия формата : Version 2
Профиль формата : Main@Main
Параметр BVOP формата : Да
Параметр матрицы формата : Выборочная
Параметр GOP формата : Variable
Продолжительность : 15 м.
Битрейт : 7900 Кбит/сек
Ширина : 720 пикселей
Высота : 576 пикселей
Соотношение сторон : 16:9
Частота кадров : 25,000 кадров/сек
Стандарт вещания : PAL
Цветовое пространство : YUV
Субдискретизация насыщенности : 4:2:0
Битовая глубина : 8 бит
Тип развёртки : Прогрессивная
Метод сжатия : С потерями
Бит/(Пиксели*Кадры) : 0.762
TimeCode_FirstFrame : 01:16:07:20
TimeCode_Source : Group of pictures header
Размер потока : 857 Мбайт (84%)
Аудио #1
Идентификатор : 189 (0xBD)-128 (0x80)
Формат : AC-3
Формат/Информация : Audio Coding 3
Расширение режима : CM (complete main)
Параметр Endianness формата : Big
Режим смешивания : DVD-Video
Продолжительность : 15 м.
Вид битрейта : Постоянный
Битрейт : 448 Кбит/сек
Каналы : 6 каналов
Расположение каналов : Front: L C R, Side: L R, LFE
Частота : 48,0 КГц
Битовая глубина : 16 бит
Метод сжатия : С потерями
Задержка видео : -776 мс.
Размер потока : 48,8 Мбайт (5%)
Аудио #2
Идентификатор : 189 (0xBD)-129 (0x81)
Формат : AC-3
Формат/Информация : Audio Coding 3
Расширение режима : CM (complete main)
Параметр Endianness формата : Big
Режим смешивания : DVD-Video
Продолжительность : 15 м.
Вид битрейта : Постоянный
Битрейт : 448 Кбит/сек
Каналы : 6 каналов
Расположение каналов : Front: L C R, Side: L R, LFE
Частота : 48,0 КГц
Битовая глубина : 16 бит
Метод сжатия : С потерями
Задержка видео : -808 мс.
Размер потока : 48,8 Мбайт (5%)
Аудио #3
Идентификатор : 189 (0xBD)-130 (0x82)
Формат : AC-3
Формат/Информация : Audio Coding 3
Расширение режима : CM (complete main)
Параметр Endianness формата : Big
Режим смешивания : DVD-Video
Продолжительность : 15 м.
Вид битрейта : Постоянный
Битрейт : 448 Кбит/сек
Каналы : 6 каналов
Расположение каналов : Front: L C R, Side: L R, LFE
Частота : 48,0 КГц
Битовая глубина : 16 бит
Метод сжатия : С потерями
Задержка видео : -808 мс.
Размер потока : 48,8 Мбайт (5%)
Меню
Общее
Полное имя : D:\Shi mian mai fu_2004\VIDEO_TS\VTS_01_7.VOB
Формат : MPEG-PS
Размер файла : 1024 Мбайт
Продолжительность : 15 м.
Общий поток : 9400 Кбит/сек
Видео
Идентификатор : 224 (0xE0)
Формат : MPEG Video
Версия формата : Version 2
Профиль формата : Main@Main
Параметр BVOP формата : Да
Параметр матрицы формата : Выборочная
Параметр GOP формата : M=3, N=15
Продолжительность : 15 м.
Битрейт : 7900 Кбит/сек
Ширина : 720 пикселей
Высота : 576 пикселей
Соотношение сторон : 16:9
Частота кадров : 25,000 кадров/сек
Стандарт вещания : PAL
Цветовое пространство : YUV
Субдискретизация насыщенности : 4:2:0
Битовая глубина : 8 бит
Тип развёртки : Прогрессивная
Метод сжатия : С потерями
Бит/(Пиксели*Кадры) : 0.762
TimeCode_FirstFrame : 01:31:21:04
TimeCode_Source : Group of pictures header
Размер потока : 857 Мбайт (84%)
Аудио #1
Идентификатор : 189 (0xBD)-128 (0x80)
Формат : AC-3
Формат/Информация : Audio Coding 3
Расширение режима : CM (complete main)
Параметр Endianness формата : Big
Режим смешивания : DVD-Video
Продолжительность : 15 м.
Вид битрейта : Постоянный
Битрейт : 448 Кбит/сек
Каналы : 6 каналов
Расположение каналов : Front: L C R, Side: L R, LFE
Частота : 48,0 КГц
Битовая глубина : 16 бит
Метод сжатия : С потерями
Задержка видео : -536 мс.
Размер потока : 48,8 Мбайт (5%)
Аудио #2
Идентификатор : 189 (0xBD)-129 (0x81)
Формат : AC-3
Формат/Информация : Audio Coding 3
Расширение режима : CM (complete main)
Параметр Endianness формата : Big
Режим смешивания : DVD-Video
Продолжительность : 15 м.
Вид битрейта : Постоянный
Битрейт : 448 Кбит/сек
Каналы : 6 каналов
Расположение каналов : Front: L C R, Side: L R, LFE
Частота : 48,0 КГц
Битовая глубина : 16 бит
Метод сжатия : С потерями
Задержка видео : -536 мс.
Размер потока : 48,8 Мбайт (5%)
Аудио #3
Идентификатор : 189 (0xBD)-130 (0x82)
Формат : AC-3
Формат/Информация : Audio Coding 3
Расширение режима : CM (complete main)
Параметр Endianness формата : Big
Режим смешивания : DVD-Video
Продолжительность : 15 м.
Вид битрейта : Постоянный
Битрейт : 448 Кбит/сек
Каналы : 6 каналов
Расположение каналов : Front: L C R, Side: L R, LFE
Частота : 48,0 КГц
Битовая глубина : 16 бит
Метод сжатия : С потерями
Задержка видео : -536 мс.
Размер потока : 48,8 Мбайт (5%)
Меню
Общее
Полное имя : D:\Shi mian mai fu_2004\VIDEO_TS\VTS_01_8.VOB
Формат : MPEG-PS
Размер файла : 541 Мбайт
Продолжительность : 8 м. 3 с.
Общий поток : 9393 Кбит/сек
Видео
Идентификатор : 224 (0xE0)
Формат : MPEG Video
Версия формата : Version 2
Профиль формата : Main@Main
Параметр BVOP формата : Да
Параметр матрицы формата : Выборочная
Параметр GOP формата : Variable
Продолжительность : 8 м. 2 с.
Битрейт : 7900 Кбит/сек
Ширина : 720 пикселей
Высота : 576 пикселей
Соотношение сторон : 16:9
Частота кадров : 25,000 кадров/сек
Стандарт вещания : PAL
Цветовое пространство : YUV
Субдискретизация насыщенности : 4:2:0
Битовая глубина : 8 бит
Тип развёртки : Прогрессивная
Метод сжатия : С потерями
Бит/(Пиксели*Кадры) : 0.762
TimeCode_FirstFrame : 01:46:35:03
TimeCode_Source : Group of pictures header
Размер потока : 452 Мбайт (84%)
Аудио #1
Идентификатор : 189 (0xBD)-128 (0x80)
Формат : AC-3
Формат/Информация : Audio Coding 3
Расширение режима : CM (complete main)
Параметр Endianness формата : Big
Режим смешивания : DVD-Video
Продолжительность : 8 м. 3 с.
Вид битрейта : Постоянный
Битрейт : 448 Кбит/сек
Каналы : 6 каналов
Расположение каналов : Front: L C R, Side: L R, LFE
Частота : 48,0 КГц
Битовая глубина : 16 бит
Метод сжатия : С потерями
Задержка видео : -560 мс.
Размер потока : 25,8 Мбайт (5%)
Аудио #2
Идентификатор : 189 (0xBD)-129 (0x81)
Формат : AC-3
Формат/Информация : Audio Coding 3
Расширение режима : CM (complete main)
Параметр Endianness формата : Big
Режим смешивания : DVD-Video
Продолжительность : 8 м. 3 с.
Вид битрейта : Постоянный
Битрейт : 448 Кбит/сек
Каналы : 6 каналов
Расположение каналов : Front: L C R, Side: L R, LFE
Частота : 48,0 КГц
Битовая глубина : 16 бит
Метод сжатия : С потерями
Задержка видео : -560 мс.
Размер потока : 25,8 Мбайт (5%)
Аудио #3
Идентификатор : 189 (0xBD)-130 (0x82)
Формат : AC-3
Формат/Информация : Audio Coding 3
Расширение режима : CM (complete main)
Параметр Endianness формата : Big
Режим смешивания : DVD-Video
Продолжительность : 8 м. 3 с.
Вид битрейта : Постоянный
Битрейт : 448 Кбит/сек
Каналы : 6 каналов
Расположение каналов : Front: L C R, Side: L R, LFE
Частота : 48,0 КГц
Битовая глубина : 16 бит
Метод сжатия : С потерями
Задержка видео : -560 мс.
Размер потока : 25,8 Мбайт (5%)
Меню
Скриншоты меню
Скриншоты
Проверено на
софтовом CyberLink PowerDVD и железном плейере BBK.
Раздавать буду с 9.00 до 23.00 до первых пяти скачавших.
Потом по возможности.

DVD_5 не будет.
[Профиль] [ЛС]
Показать сообщения:    
Ответить на тему

Текущее время: 20-Фев 02:59

Часовой пояс: UTC + 3



Вы не можете начинать темы
Вы не можете отвечать на сообщения
Вы не можете редактировать свои сообщения
Вы не можете удалять свои сообщения
Вы не можете голосовать в опросах
Вы не можете прикреплять файлы к сообщениям
Вы не можете скачивать файлы