Сегодня идет свободное скачивание без начисления Download

Военная приемка. Хроники противоминного центра (21.01.2018) SATRip

Ответить на тему
 
Автор Сообщение

Bot ®

Стаж: 4 года 4 месяца

Сообщений: 13

Создавать темы 13-Фев-2018 20:15

[Цитировать]

Военная приемка. Хроники противоминного центра (21.01.2018) SATRip - Телекомпания: ОАО «ТРК ВС РФ «ЗВЕЗДА
Жанр: Документальный
Режиссер: Александр Шильников
Ведущий: Алексей Егоров
Описание:В этот раз «Военная приемка» покажет вам эксклюзивные кадры работы саперов в Сирии. Мы раскроем секрет, как именно они охраняют базу Хмеймим от бомб и закладок боевиков. Вы увидите редчайшие кадры особой подготовки сирийских специальных саперных подразделений, которую организовали наши военные саперы. Причем не в России, а там же, в Сирии – в городе Хомсе. Там еще во время войны с террористами представители Международного противоминного центра РФ открыли настоящий саперный вуз. Ну и конечно, «Военная приемка» расскажет о новой технике, которая помогает нашим бойцам разминировать опасные «подарки». Впервые будут показаны приборы, с которыми работали наши саперы в арабской республике: миноискатель «Коршун» и радар РО-900, который видит людей сквозь здания. И еще одна новинка! Впервые на российском телевидении будет показана работа комплекса дистанционного разминирования «Возница» на базе армейского броневика. Он находит и разминирует различные мины и бомбы прямо во время движения. Вы увидите уникальные кадры работы этого комплекса по разминированию настоящих фугасных зарядов.Релиз от: centoriuse
Продолжительность: 00:38:58
Качество видео: SATRip
Видео: MPEG4, XviD, 720x400 (16:9), 25.000 fps, 1 793 Kbps (0.249 bit/pixel)
Аудио: AC-3, 48.0 KHz, 2 ch, 192 Kbps, CBR
Mediainfo:
Общее
Полное имя : F:\видео\фильмы\Военная приемка\Военная приемка (2018.01.21) SATRip.avi
Формат : AVI
Формат/Информация : Audio Video Interleave
Размер файла : 556 Мбайт
Продолжительность : 38 м. 58 с.
Общий поток : 1994 Кбит/сек
Программа кодирования : VirtualDubMod 1.5.10.3 | www.virtualdub-fr.org || (build 2550/release)
Библиотека кодирования : VirtualDubMod build 2550/release
Видео
Идентификатор : 0
Формат : MPEG-4 Visual
Профиль формата : Advanced Simple@L5
Настройки формата : BVOP1
Параметр BVOP формата : 1
Параметр QPel формата : Нет
Параметр GMC формата : Без точки перехода
Параметр матрицы формата : Default (H.263)
Идентификатор кодека : XVID
Идентификатор кодека/Подсказка : XviD
Продолжительность : 38 м. 58 с.
Битрейт : 1793 Кбит/сек
Ширина : 720 пикселей
Высота : 400 пикселей
Соотношение сторон : 16:9
Частота кадров : 25,000 кадров/сек
Цветовое пространство : YUV
Субдискретизация насыщенности : 4:2:0
Битовая глубина : 8 бит
Тип развёртки : Прогрессивная
Метод сжатия : С потерями
Бит/(Пиксели*Кадры) : 0.249
Размер потока : 500 Мбайт (90%)
Библиотека кодирования : XviD 1.2.1 (UTC 2008-12-04)
Аудио
Идентификатор : 1
Формат : AC-3
Формат/Информация : Audio Coding 3
Идентификатор кодека : 2000
Продолжительность : 38 м. 58 с.
Вид битрейта : Постоянный
Битрейт : 192 Кбит/сек
Каналы : 2 канала
Расположение каналов : Front: L R
Частота : 48,0 КГц
Частота кадров : 31,250 кадров/сек (1536 SPF)
Битовая глубина : 16 бит
Метод сжатия : С потерями
Размер потока : 53,5 Мбайт (10%)
Выравнивание : Разделение по промежуткам
Продолжительность промежутка : 40 мс. (1,00 видеокадр)
Время предзагрузки промежутка : 500 мс.
ServiceKind/String : Complete Main
Скриншоты:
Все одноименные релизы в КлубеВремя раздачи: 24/7 (до появления первых 3-5 скачавших)
[Профиль] [ЛС]
Показать сообщения:    
Ответить на тему

Текущее время: 20-Июн 18:05

Часовой пояс: UTC + 3



Вы не можете начинать темы
Вы не можете отвечать на сообщения
Вы не можете редактировать свои сообщения
Вы не можете удалять свои сообщения
Вы не можете голосовать в опросах
Вы не можете прикреплять файлы к сообщениям
Вы не можете скачивать файлы