Сегодня идет свободное скачивание без начисления Download

Свадебная вечеринка / The In-Laws (Эндрю Флеминг / Andrew Fleming) [2003, США, Германия, Канада, боевик, триллер, комедия, WEB-DL 720p] Dub (R5) + 2x MVO + DVO (ИНИС) + Sub (Rus, Eng) + Original (Eng)

Ответить на тему
 
Автор Сообщение

Bot ®

Стаж: 1 год 5 месяцев

Сообщений: 10

Создавать темы 13-Фев-2018 20:30

[Цитировать]

Свадебная вечеринка / The In-Laws
Страна: США, Германия, Канада
Жанр: боевик, триллер, комедия
Год выпуска: 2003
Продолжительность: 01:37:49
Перевод 1: Профессиональный (дублированный) R5
Перевод 2: Профессиональный (многоголосый закадровый)
Перевод 3: Профессиональный (многоголосый закадровый)
Перевод 4: Профессиональный (двухголосый закадровый) ИНИС
Субтитры: русские, английские
Оригинальная аудиодорожка: английский
Режиссер: Эндрю Флеминг / Andrew Fleming
В ролях: Майкл Дуглас, Майкл Боднар, Владимир Рэдиан, Робин Тунни, Альберт Брукс, Бойд Бэнкс, Сьюзан Эсерон, Линдсей Слоан, Мария Рикосса, Райан Рейнольдс, Чэнг Тсенг, Тамара Горски, Мэтт Бирмэн, А. Расселл Эндрюс, Ричард Вог
Описание: Крутой агент ЦРУ во время секретной операции узнает, что его сын повзрослел и решил жениться. Он бросает все и летит на встречу с новыми родственниками. С этого момента жизнь мирного врача — отца невесты превращается в шпионский боевик: международные террористы и колумбийские контрабандисты, роковые красотки и большие-большие деньги, автомобильные погони и гонки на воде, свист пуль и визг тормозов… Ничто не может остановить папаш, когда свадьба их детей под угрозой!
Доп. информация:
За дорожку №4 спасибо Slim9174!
Рейтинг:

Сэмпл: http://multi-up.com/882944
Тип релиза: WEB-DL 720p
Контейнер: MKV
Видео: 1280x718 at 23.976 fps, MPEG-4 AVC, ~4000 kbps avg
Аудио 1: Russian: 48 kHz, AC3, 3/2 (L,C,R,l,r) + LFE ch, ~448.00 kbps avg |Дублированный, R5|
Аудио 2: Russian: 48 kHz, AC3, 3/2 (L,C,R,l,r) + LFE ch, ~448.00 kbps avg |Многоголосый закадровый|
Аудио 3: Russian: 48 kHz, AC3, 2/0 (L,R) ch, ~192.00 kbps avg |Многоголосый закадровый|
Аудио 4: Russian: 48 kHz, AC3, 2/0 (L,R) ch, ~192.00 kbps avg |Двухголосый закадровый, ИНИС|
Аудио 5: English: 48 kHz, AC3, 3/2 (L,C,R,l,r) + LFE ch, ~448.00 kbps avg
Формат субтитров: softsub (SRT)
MediaInfo
Complete name : D:\The.In-Laws.2003.720p.WEB-DL.DD5.1.H.264-CtrlHD.mkv
Format : Matroska
Format version : Version 2
File size : 3.94 GiB
Duration : 1h 37mn
Overall bit rate : 5 762 Kbps
Encoded date : UTC 2013-07-09 15:41:18
Writing application : mkvmerge v5.5.0 ('Healer') built on Apr 6 2012 21:43:24
Writing library : libebml v1.2.3 + libmatroska v1.3.0
Video
ID : 1
Format : AVC
Format/Info : Advanced Video Codec
Format profile : High@L3.1
Format settings, CABAC : No
Format settings, ReFrames : 2 frames
Format settings, GOP : N=1
Codec ID : V_MPEG4/ISO/AVC
Duration : 1h 37mn
Bit rate : 3 919 Kbps
Width : 1 280 pixels
Height : 718 pixels
Display aspect ratio : 16:9
Frame rate mode : Constant
Frame rate : 23.976 fps
Color space : YUV
Chroma subsampling : 4:2:0
Bit depth : 8 bits
Scan type : Progressive
Bits/(Pixel*Frame) : 0.178
Stream size : 2.68 GiB (68%)
Title : The.In-Laws.2003.720p.WEB-DL.DD5.1.H.264-CtrlHD
Language : English
Default : Yes
Forced : No
Color primaries : BT.709
Transfer characteristics : BT.709
Matrix coefficients : BT.709
Audio #1
ID : 2
Format : AC-3
Format/Info : Audio Coding 3
Mode extension : CM (complete main)
Format settings, Endianness : Big
Codec ID : A_AC3
Duration : 1h 37mn
Bit rate mode : Constant
Bit rate : 448 Kbps
Channel count : 6 channels
Channel positions : Front: L C R, Side: L R, LFE
Sampling rate : 48.0 KHz
Bit depth : 16 bits
Compression mode : Lossy
Stream size : 313 MiB (8%)
Title : AC3 5.1 @ 448 kbps - Дублированный, R5
Language : Russian
Default : Yes
Forced : No
Audio #2
ID : 3
Format : AC-3
Format/Info : Audio Coding 3
Mode extension : CM (complete main)
Format settings, Endianness : Big
Codec ID : A_AC3
Duration : 1h 37mn
Bit rate mode : Constant
Bit rate : 448 Kbps
Channel count : 6 channels
Channel positions : Front: L C R, Side: L R, LFE
Sampling rate : 48.0 KHz
Bit depth : 16 bits
Compression mode : Lossy
Stream size : 313 MiB (8%)
Title : AC3 5.1 @ 448 kbps - Многоголосый закадровый
Language : Russian
Default : No
Forced : No
Audio #3
ID : 4
Format : AC-3
Format/Info : Audio Coding 3
Mode extension : CM (complete main)
Format settings, Endianness : Big
Codec ID : A_AC3
Duration : 1h 37mn
Bit rate mode : Constant
Bit rate : 192 Kbps
Channel count : 2 channels
Channel positions : Front: L R
Sampling rate : 48.0 KHz
Bit depth : 16 bits
Compression mode : Lossy
Stream size : 134 MiB (3%)
Title : AC3 2.0 @ 192 kbps - Многоголосый закадровый
Language : Russian
Default : No
Forced : No
Audio #4
ID : 5
Format : AC-3
Format/Info : Audio Coding 3
Mode extension : CM (complete main)
Format settings, Endianness : Big
Codec ID : A_AC3
Duration : 1h 37mn
Bit rate mode : Constant
Bit rate : 192 Kbps
Channel count : 2 channels
Channel positions : Front: L R
Sampling rate : 48.0 KHz
Bit depth : 16 bits
Compression mode : Lossy
Stream size : 134 MiB (3%)
Title : AC3 2.0 @ 192 kbps - Двухголосый закадровый, ИНИС
Language : Russian
Default : No
Forced : No
Audio #5
ID : 6
Format : AC-3
Format/Info : Audio Coding 3
Mode extension : CM (complete main)
Format settings, Endianness : Big
Codec ID : A_AC3
Duration : 1h 37mn
Bit rate mode : Constant
Bit rate : 448 Kbps
Channel count : 6 channels
Channel positions : Front: L C R, Side: L R, LFE
Sampling rate : 48.0 KHz
Bit depth : 16 bits
Compression mode : Lossy
Stream size : 313 MiB (8%)
Title : AC3 5.1 @ 448 kbps
Language : English
Default : No
Forced : No
Text #1
ID : 7
Format : UTF-8
Codec ID : S_TEXT/UTF8
Codec ID/Info : UTF-8 Plain Text
Language : Russian
Default : No
Forced : No
Text #2
ID : 8
Format : UTF-8
Codec ID : S_TEXT/UTF8
Codec ID/Info : UTF-8 Plain Text
Language : English
Default : No
Forced : No
Menu
00:00:00.000 : en:Minor Snag In Prague
00:06:02.000 : en:Not Ready Yet
00:08:55.000 : en:Ethnic Food
00:13:09.000 : en:House Special
00:16:21.000 : en:Work In The Bathroom
00:21:08.000 : en:Podiatrist Of The Year
00:24:17.000 : en:Hold Your Breath
00:27:19.000 : en:Deep Undercover
00:29:29.000 : en:Barbra's Jet
00:33:26.000 : en:Olga's Identity
00:37:55.000 : en:Meet The Fat Cobra
00:40:41.000 : en:Foot Persons
00:44:47.000 : en:Wet Bone
00:48:20.000 : en:We're Not Family
00:52:52.000 : en:Party Movements
00:55:56.000 : en:He's Dangerous
01:00:54.000 : en:More Than A Slight Jerk
01:04:16.000 : en:Tired Of Juggling
01:08:40.000 : en:Getting The Picture
01:11:02.000 : en:Taking The Lead
01:14:31.000 : en:Family Tied
01:18:04.000 : en:Creating A Diversion
01:21:00.000 : en:Noisy Truth
01:23:59.000 : en:Awesome Splash
01:26:10.000 : en:Six On A Beach
01:29:51.000 : en:End Credits
Скриншоты
[Профиль] [ЛС]
Показать сообщения:    
Ответить на тему

Текущее время: 18-Фев 04:03

Часовой пояс: UTC + 3



Вы не можете начинать темы
Вы не можете отвечать на сообщения
Вы не можете редактировать свои сообщения
Вы не можете удалять свои сообщения
Вы не можете голосовать в опросах
Вы не можете прикреплять файлы к сообщениям
Вы не можете скачивать файлы