Сегодня идет свободное скачивание без начисления Download

Дети природы / Les enfants du Marais (Жан Бекер / Jean Becker) [1999, Франция, драма, комедия, DVDRip-AVC] DVO (РенТВ) + Original (Fre) + Sub (Rus, Eng)

Ответить на тему
 
Автор Сообщение

Bot ®

Стаж: 3 года 3 месяца

Сообщений: 9

Создавать темы 13-Фев-2018 20:45

[Цитировать]

Дети природы / Les enfants du Marais- Страна: Франция
Жанр: драма, комедия
Год выпуска: 1999
Продолжительность: 01:50:30
Перевод: Профессиональный (двухголосый закадровый) - РенТВ
Оригинальная аудиодорожка: французский
Субтитры: русские, английские
Режиссер: Жан Бекер / Jean Becker
В ролях: Жак Гамблен, Жак Вильре, Андре Дюссолье, Мишель Серро, Изабель Карре, Эрик Кантона, Сюзанн Флон, Жак Дюфило, Жизель Казадезю, Ролан Магдан, Элизабет Коммелен, Джули Марбеф, Женни Клев, Филипп Маньян, Жак Буде, Марлен Баффье, Фабьенна Лабанда, Ромейн Дрейфус, Максим Монсимье, Анна Ле Гюэрнек, Марго Маргарит, Мелани Бакстер Джонс, Пьер Бьянко, Жак Динам, Эрик Эбони, Джон Ферни, Кристиан Тапонард, Мэгги Дюссошуа, Изабель Садоян, Жан Морель
Описание: Марэ — тихий городок на берегу полноводной Луары. Два старинных друга Гарри и Римон привыкли коротать деньки за обычной работой, не очень заботясь о смысле жизни. У каждого из них есть свои мечты, воспоминания, уже прошедшая молодость. Но однажды приходят долгожданные перемены. Оказывается, в их жизни еще есть место сумасшедшей любви, захватывающим приключениям и серьезным мужским разборкам.

Релиз:
Автор: nnlabetik
Семпл
Качество видео: DVDRip-AVC [DVD9]
Формат видео: MKV
Видео: 718x436@1024x436 (2.35:1), 23,976 fps, MPEG-4 AVC High@L4.1, 2435 kbps, 0.311 bit/pixel
Аудио 1: 48 kHz, AC3 Dolby Digital, 2/0 (L,R) ch, 192 kbps, DVO (РенТВ)
Аудио 2: 48 kHz, AC3 Dolby Digital, 2/0 (L,R) ch, 192 kbps, Original (Fre)
Формат субтитров: softsub (SRT)
MediaInfo | x264
x264
x264 [info]:
x264 [info]: frame I:1758 Avg QP:16.52 size: 38222
x264 [info]: frame P:74195 Avg QP:17.98 size: 18538
x264 [info]: frame B:89797 Avg QP:19.88 size: 6400
x264 [info]: consecutive B-frames: 11.0% 46.5% 17.7% 15.5% 8.6% 0.2% 0.4%
x264 [info]: mb I I16..4: 1.8% 88.5% 9.7%
x264 [info]: mb P I16..4: 0.3% 19.6% 1.8% P16..4: 29.1% 33.8% 12.4% 0.0% 0.0% skip: 2.8%
x264 [info]: mb B I16..4: 0.1% 2.6% 0.4% B16..8: 36.0% 22.7% 3.7% direct: 7.9% skip:26.8% L0:36.0% L1:40.7% BI:23.3%
x264 [info]: 8x8 transform intra:89.2% inter:60.5%
x264 [info]: direct mvs spatial:94.4% temporal:5.6%
x264 [info]: coded y,uvDC,uvAC intra: 91.2% 78.8% 43.3% inter: 41.0% 25.4% 2.3%
x264 [info]: i16 v,h,dc,p: 17% 11% 14% 59%
x264 [info]: i8 v,h,dc,ddl,ddr,vr,hd,vl,hu: 17% 8% 19% 7% 8% 10% 8% 11% 10%
x264 [info]: i4 v,h,dc,ddl,ddr,vr,hd,vl,hu: 49% 6% 8% 5% 7% 9% 6% 7% 5%
x264 [info]: i8c dc,h,v,p: 28% 29% 27% 16%
x264 [info]: Weighted P-Frames: Y:5.1% UV:1.1%
x264 [info]: ref P L0: 52.4% 15.2% 15.1% 5.2% 4.1% 2.9% 2.8% 1.7% 0.6% 0.0%
x264 [info]: ref B L0: 79.4% 12.3% 3.6% 2.0% 1.4% 1.0% 0.3%
x264 [info]: ref B L1: 96.0% 4.0%
Общее
Уникальный идентификатор : 232964087928460602308903043171851783728 (0xAF434054988170ECACEF9EF7E7A14E30)
Полное имя : C:\Deti.prirody.1999.DVDRip.(AVC).mkv
Формат : Matroska
Версия формата : Version 4 / Version 2
Размер файла : 2,18 Гбайт
Продолжительность : 1 ч. 50 м.
Общий поток : 2821 Кбит/сек
Название фильма : Дети природы (1999) - release by ==nnlabetik==
Дата кодирования : UTC 2013-06-09 15:10:18
Программа кодирования : mkvmerge v6.2.0 ('Promised Land') built on Apr 28 2013 12:22:01
Библиотека кодирования : libebml v1.3.0 + libmatroska v1.4.0
Видео
Идентификатор : 1
Формат : AVC
Формат/Информация : Advanced Video Codec
Профиль формата : High@L4.1
Параметр CABAC формата : Да
Параметр ReFrames формата : 8 кадров
Идентификатор кодека : V_MPEG4/ISO/AVC
Продолжительность : 1 ч. 50 м.
Битрейт : 2435 Кбит/сек
Ширина : 718 пикселей
Высота : 436 пикселей
Соотношение сторон : 2,35:1
Соотношение сторон в оригинале : 2,35:1
Режим частоты кадров : Постоянный
Частота кадров : 25,000 кадров/сек
Цветовое пространство : YUV
Субдискретизация насыщенности : 4:2:0
Битовая глубина : 8 бит
Тип развёртки : Прогрессивная
Бит/(Пиксели*Кадры) : 0.311
Размер потока : 1,84 Гбайт (84%)
Библиотека кодирования : x264 core 130 r2273 b3065e6
Настройки программы : cabac=1 / ref=8 / deblock=1:-2:-1 / analyse=0x3:0x113 / me=umh / subme=11 / psy=1 / psy_rd=1.00:0.00 / mixed_ref=1 / me_range=32 / chroma_me=1 / trellis=2 / 8x8dct=1 / cqm=0 / deadzone=21,11 / fast_pskip=1 / chroma_qp_offset=-2 / threads=4 / lookahead_threads=1 / sliced_threads=0 / nr=0 / decimate=1 / interlaced=0 / bluray_compat=0 / constrained_intra=0 / bframes=6 / b_pyramid=2 / b_adapt=1 / b_bias=0 / direct=3 / weightb=1 / open_gop=0 / weightp=2 / keyint=250 / keyint_min=25 / scenecut=40 / intra_refresh=0 / rc=2pass / mbtree=0 / bitrate=2435 / ratetol=1.0 / qcomp=0.60 / qpmin=10 / qpmax=69 / qpstep=4 / cplxblur=20.0 / qblur=0.5 / ip_ratio=1.40 / pb_ratio=1.30 / aq=1:1.00
Язык : French
Default : Да
Forced : Нет
Аудио #1
Идентификатор : 2
Формат : AC-3
Формат/Информация : Audio Coding 3
Расширение режима : CM (complete main)
Параметр Endianness формата : Big
Идентификатор кодека : A_AC3
Продолжительность : 1 ч. 50 м.
Вид битрейта : Постоянный
Битрейт : 192 Кбит/сек
Каналы : 2 канала
Расположение каналов : Front: L R
Частота : 48,0 КГц
Битовая глубина : 16 бит
Метод сжатия : С потерями
Размер потока : 152 Мбайт (7%)
Заголовок : DVO
Язык : Russian
Default : Да
Forced : Нет
Аудио #2
Идентификатор : 3
Формат : AC-3
Формат/Информация : Audio Coding 3
Расширение режима : CM (complete main)
Параметр Endianness формата : Big
Идентификатор кодека : A_AC3
Продолжительность : 1 ч. 50 м.
Вид битрейта : Постоянный
Битрейт : 192 Кбит/сек
Каналы : 2 канала
Расположение каналов : Front: L R
Частота : 48,0 КГц
Битовая глубина : 16 бит
Метод сжатия : С потерями
Размер потока : 152 Мбайт (7%)
Язык : French
Default : Нет
Forced : Нет
Текст #1
Идентификатор : 4
Формат : UTF-8
Идентификатор кодека : S_TEXT/UTF8
Идентификатор кодека/Информация : UTF-8 Plain Text
Язык : Russian
Default : Да
Forced : Нет
Текст #2
Идентификатор : 5
Формат : UTF-8
Идентификатор кодека : S_TEXT/UTF8
Идентификатор кодека/Информация : UTF-8 Plain Text
Язык : English
Default : Нет
Forced : Нет
Меню
00:00:00.000 : :Chapter 01
00:15:14.200 : :Chapter 02
00:47:19.360 : :Chapter 03
01:12:08.560 : :Chapter 04
Скриншоты
[Профиль] [ЛС]
Показать сообщения:    
Ответить на тему

Текущее время: 20-Июн 18:05

Часовой пояс: UTC + 3



Вы не можете начинать темы
Вы не можете отвечать на сообщения
Вы не можете редактировать свои сообщения
Вы не можете удалять свои сообщения
Вы не можете голосовать в опросах
Вы не можете прикреплять файлы к сообщениям
Вы не можете скачивать файлы