Сегодня идет свободное скачивание без начисления Download

Кровь / Blood (Ник Мерфи / Nick Murphy) [2012, Великобритания, Триллер, детектив, BDRip 1080p] MVO + Sub Rus, Eng + Original Eng

Ответить на тему
 
Автор Сообщение

Bot ®

Стаж: 1 год 9 месяцев

Сообщений: 4

Создавать темы 13-Фев-2018 20:45

[Цитировать]

Кровь / Blood
Страна: Великобритания
Студия: Neal Street Productions, BBC Films, IM Global, Quickfire Films, Red Production Company
Жанр: Триллер, детектив
Год выпуска: 2012
Продолжительность: 01:32:15
Перевод: Профессиональный (многоголосый закадровый)
Субтитры: Русские, английские
Оригинальная аудиодорожка: английский
Режиссер: Ник Мерфи / Nick Murphy
В ролях: Пол Беттани, Стивен Грэм, Марк Стронг, Брайан Кокс, Зои Таппер, Бен Кромптон, Ник Мерфи, Наташа Литтл, Эдриен Эдмондсон, Патрик Херд-Вуд
Описание: Жестоко убита красивая девушка. Есть подозреваемый. Казалось бы, все просто. Но расследование, которое ведут два молодых брата-полицейских, начинает развиваться в совершенно неожиданном направлении. Вместо поиска убийцы и раскрытия преступления, совершенного в настоящем, цепь событий неуклонно уводит братьев в сторону преступлений, совершенных в прошлом. Преступлений, которые должны были оказаться навеки забытыми.
Релиз от:
Сэмпл

Тип релиза: BDRip 1080p
Контейнер: MKV
Видео: MPEG-4 AVC, 12.5 Мбит/с, 1920x818
Аудио: Русский (AC3, 6 ch, 384 Кбит/с)
Аудио 2: английский (AC3, 6 ch, 640 Кбит/с)
MediaInfo
General
Complete name : C:\фильмы\Krov.2012.P.BDRip.1080p.IRONCLUB.mkv
Format : Matroska
File size : 8.90 GiB
Duration : 1h 32mn
Overall bit rate : 13.8 Mbps
Movie name : IRONCLUB
Encoded date : UTC 2013-06-17 09:58:57
Writing application : mkvmerge v5.2.0 ('I can't explain') built on Dec 18 2011 18:12:03
Writing library : libebml v1.2.3 + libmatroska v1.3.0
Video
ID : 1
Format : AVC
Format/Info : Advanced Video Codec
Format profile : High@L4.1
Format settings, CABAC : Yes
Format settings, ReFrames : 5 frames
Muxing mode : Container profile=Unknown@4.1
Codec ID : V_MPEG4/ISO/AVC
Duration : 1h 32mn
Bit rate : 12.5 Mbps
Width : 1 920 pixels
Height : 818 pixels
Display aspect ratio : 2.35:1
Frame rate : 23.976 fps
Resolution : 8 bits
Colorimetry : 4:2:0
Scan type : Progressive
Bits/(Pixel*Frame) : 0.332
Stream size : 8.06 GiB (91%)
Title : Blood 2012 1080p BluRay DD5.1 x264-CRiSC
Writing library : x264 core 133 r2334kMod a3ac64b
Encoding settings : cabac=1 / ref=5 / deblock=1:-3:-3 / analyse=0x3:0x133 / me=umh / subme=11 / psy=1 / fade_compensate=0.00 / psy_rd=1.00:0.00 / mixed_ref=1 / me_range=64 / chroma_me=1 / trellis=2 / 8x8dct=1 / cqm=0 / deadzone=21,11 / fast_pskip=0 / chroma_qp_offset=-2 / threads=12 / lookahead_threads=3 / sliced_threads=0 / nr=0 / decimate=0 / interlaced=0 / bluray_compat=0 / constrained_intra=0 / bframes=11 / b_pyramid=2 / b_adapt=2 / b_bias=0 / direct=3 / weightb=1 / open_gop=0 / weightp=2 / keyint=250 / keyint_min=23 / scenecut=40 / intra_refresh=0 / rc_lookahead=40 / rc=crf / mbtree=0 / crf=17.3500 / qcomp=0.75 / qpmin=0 / qpmax=69 / qpstep=4 / vbv_maxrate=50000 / vbv_bufsize=62500 / crf_max=0.0 / nal_hrd=none / ip_ratio=1.35 / pb_ratio=1.25 / aq=1:0.60
Color primaries : BT.709-5, BT.1361, IEC 61966-2-4, SMPTE RP177
Transfer characteristics : BT.709-5, BT.1361
Matrix coefficients : BT.709-5, BT.1361, IEC 61966-2-4 709, SMPTE RP177
Audio #1
ID : 2
Format : AC-3
Format/Info : Audio Coding 3
Codec ID : A_AC3
Duration : 1h 32mn
Bit rate mode : Constant
Bit rate : 384 Kbps
Channel(s) : 6 channels
Channel positions : Front: L C R, Side: L R, LFE
Sampling rate : 48.0 KHz
Stream size : 253 MiB (3%)
Title : DD 5.1 @ 384 kbps - MVO, R5
Language : Russian
Audio #2
ID : 3
Format : AC-3
Format/Info : Audio Coding 3
Codec ID : A_AC3
Duration : 1h 32mn
Bit rate mode : Constant
Bit rate : 640 Kbps
Channel(s) : 6 channels
Channel positions : Front: L C R, Side: L R, LFE
Sampling rate : 48.0 KHz
Stream size : 422 MiB (5%)
Title : DD 5.1 @ 640 kbps
Text #1
ID : 4
Format : UTF-8
Codec ID : S_TEXT/UTF8
Codec ID/Info : UTF-8 Plain Text
Title : R5
Language : Russian
Text #2
ID : 5
Format : UTF-8
Codec ID : S_TEXT/UTF8
Codec ID/Info : UTF-8 Plain Text
Menu
00:00:00.000 : en:00:00:00.000
00:07:40.126 : en:00:07:40.126
00:14:26.491 : en:00:14:26.491
00:22:06.909 : en:00:22:06.909
00:31:48.907 : en:00:31:48.907
00:38:34.479 : en:00:38:34.479
00:46:56.147 : en:00:46:56.147
00:53:57.317 : en:00:53:57.317
01:00:48.979 : en:01:00:48.979
01:07:17.909 : en:01:07:17.909
01:14:48.651 : en:01:14:48.651
01:23:02.060 : en:01:23:02.060
Скриншоты
[Профиль] [ЛС]
Показать сообщения:    
Ответить на тему

Текущее время: 20-Фев 02:56

Часовой пояс: UTC + 3



Вы не можете начинать темы
Вы не можете отвечать на сообщения
Вы не можете редактировать свои сообщения
Вы не можете удалять свои сообщения
Вы не можете голосовать в опросах
Вы не можете прикреплять файлы к сообщениям
Вы не можете скачивать файлы